<?xml version="1.0" standalone="no"?>
<!DOCTYPE svg PUBLIC "-//W3C//DTD SVG 1.1//EN" "http://www.w3.org/Graphics/SVG/1.1/DTD/svg11.dtd" >
<svg>
<metadata>
Created by FontForge 20090914 at Wed Dec  7 13:44:00 2011
 By www-data
Copyright &#194;&#169; 1993 , Monotype Typography ltd.
</metadata>
<defs>
<font id="ArialRoundedMTBold" horiz-adv-x="1217" >
  <font-face 
    font-family="Arial Rounded MT Bold"
    font-weight="400"
    font-stretch="normal"
    units-per-em="2048"
    panose-1="2 15 7 4 3 5 4 3 2 4"
    ascent="1638"
    descent="-410"
    x-height="1061"
    cap-height="1491"
    bbox="-355.998 -432.001 2427 1938"
    underline-thickness="102"
    underline-position="-154"
    unicode-range="U+0020-U+F002"
  />
<missing-glyph horiz-adv-x="1024" 
d="M82 1365h860v-1365h-860v1365zM123 1324v-1283h778v1283h-778z" />
    <glyph glyph-name=".notdef" horiz-adv-x="1024" 
d="M82 1365h860v-1365h-860v1365zM123 1324v-1283h778v1283h-778z" />
    <glyph glyph-name="space" unicode=" " horiz-adv-x="512" 
 />
    <glyph glyph-name="exclam" unicode="!" horiz-adv-x="682" 
d="M231 635l-32 479.001c-6 93.333 -9 160.333 -9 201c0 55.333 14.5 98.5 43.5 129.5s67.167 46.5 114.5 46.5c57.333 0 95.666 -19.833 114.999 -59.5s29 -96.834 29 -171.501c0 -44 -2.33301 -88.667 -7 -134l-43 -493c-4.66699 -58.667 -14.667 -103.667 -30 -135
s-40.666 -47 -75.999 -47c-36 0 -61 15.167 -75 45.5s-24 76.5 -30 138.5zM342 -22.999c-40.667 0 -76.167 13.1689 -106.5 39.502s-45.5 63.166 -45.5 110.499c0 41.333 14.5 76.5 43.5 105.5s64.5 43.5 106.5 43.5s77.833 -14.5 107.5 -43.5s44.5 -64.167 44.5 -105.5
c0 -46.667 -15 -83.334 -45 -110.001s-65 -40 -105 -40z" />
    <glyph glyph-name="quotedbl" unicode="&#x22;" horiz-adv-x="981" 
d="M373 944h-207l-53 275v247h307v-247zM823 944h-207l-53 275v247h307v-247z" />
    <glyph glyph-name="numbersign" unicode="#" horiz-adv-x="1130" 
d="M117 178l37 187c-92 2 -138 38.667 -138 110c0 33.333 11.5 60.5 34.5 81.5s56.833 31.5 101.5 31.5h47l57 291h-104c-43.333 0 -76.833 10.833 -100.5 32.5s-35.5 48.167 -35.5 79.5c0 33.333 11.5 60.166 34.5 80.499s56.833 30.5 101.5 30.5h149l47 229
c7.33301 38.667 15.5 69 24.5 91s21.333 38.667 37 50s36.167 17 61.5 17c35.333 0 62.333 -9.33301 81 -28s28 -42.667 28 -72c0 -6.66699 -5.66699 -40.334 -17 -101.001l-37 -186h219l48 229c6.66699 34.667 13 62.667 19 84s16.833 39.333 32.5 54s38.5 22 68.5 22
c34.667 0 61.5 -9 80.5 -27s28.5 -42.333 28.5 -73c0 -14 -0.833008 -27.667 -2.5 -41s-3.83398 -26.166 -6.50098 -38.499s-4.33398 -20.166 -5.00098 -23.499l-37 -188c95.333 -2 143 -39 143 -111c0 -33.333 -11.333 -60 -34 -80s-56.334 -30 -101.001 -30h-51l-60 -291
h111c44.667 0 78.334 -10.667 101.001 -32s34 -48.333 34 -81s-11.167 -59.167 -33.5 -79.5s-56.166 -30.5 -101.499 -30.5h-154l-47 -230c-7.33301 -36.667 -13.833 -65 -19.5 -85s-16.5 -37.5 -32.5 -52.5s-39 -22.5 -69 -22.5c-33.333 0 -59.666 9.33301 -78.999 28
s-29 43 -29 73c0 27.333 4.66699 61.333 14 102l37 187h-221l-47 -230c-12 -56.667 -24.5 -97.5 -37.5 -122.5s-40.833 -37.5 -83.5 -37.5c-34 0 -60.667 9.33301 -80 28s-29 43 -29 73c0 15.333 1.83301 32.5 5.5 51.5zM702 879h-221l-59 -291h223z" />
    <glyph glyph-name="dollar" unicode="$" 
d="M670 1593l-0.000976562 -108c71.333 -7.33301 132.5 -22 183.5 -44s95.5 -55.333 133.5 -100c30 -34 53.167 -69 69.5 -105s24.5 -69 24.5 -99c0 -33.333 -12.167 -62.166 -36.5 -86.499s-53.833 -36.5 -88.5 -36.5c-65.333 0 -107.666 35.333 -126.999 106
c-22 83.333 -75 138.666 -159 165.999v-416c82.667 -22.667 148.5 -43.334 197.5 -62.001s92.833 -45.667 131.5 -81c41.333 -36.667 73.166 -80.5 95.499 -131.5s33.5 -106.833 33.5 -167.5c0 -76 -17.833 -147.167 -53.5 -213.5s-88.167 -120.5 -157.5 -162.5
s-151.666 -67 -246.999 -75v-249c0 -39.333 -3.83301 -68 -11.5 -86s-24.5 -27 -50.5 -27c-24 0 -40.833 7.33301 -50.5 22s-14.5 37.334 -14.5 68.001v270c-78 8.66699 -146.167 27 -204.5 55s-107 62.833 -146 104.5s-67.833 85 -86.5 130s-28 89.167 -28 132.5
c0 32 12.5 60.833 37.5 86.5s56.167 38.5 93.5 38.5c30 0 55.333 -7 76 -21s35 -33.667 43 -59c18 -54.667 33.667 -96.5 47 -125.5s33.5 -55.5 60.5 -79.5s62.833 -42.333 107.5 -55v465c-89.333 24.667 -164 52.167 -224 82.5s-108.667 73.5 -146 129.5s-56 128 -56 216
c0 114.667 36.5 208.667 109.5 282s178.5 116 316.5 128v106c0 56 21 84 63 84c42.667 0 64 -27.333 64 -82zM542.999 907v382.999c-56 -16.667 -99.667 -38.667 -131 -66s-47 -68.666 -47 -123.999c0 -52.667 14.667 -92.5 44 -119.5s74 -51.5 134 -73.5zM669.999 609.999
v-438c67.333 13.333 119.333 40.333 156 81s55 88 55 142c0 58 -17.833 102.833 -53.5 134.5s-88.167 58.5 -157.5 80.5z" />
    <glyph glyph-name="percent" unicode="%" horiz-adv-x="1749" 
d="M676 1090c0 -127.333 -27.9971 -222 -83.9971 -284s-132.667 -93 -230 -93c-60 0 -113.833 13.167 -161.5 39.5s-84.834 67.5 -111.501 123.5s-40 124.333 -40 205c0 86.667 10.333 159 31 217s54.167 102 100.5 132s105.5 45 177.5 45c52 0 97.667 -8 137 -24
s72.666 -40.5 99.999 -73.5s47.666 -73.167 60.999 -120.5s20 -103 20 -167zM489.003 1100c0 87.333 -9.33398 150.832 -28.001 190.499s-51.667 59.5 -99 59.5c-32 0 -57.5 -9.5 -76.5 -28.5s-32 -47 -39 -84s-10.5 -84.167 -10.5 -141.5
c0 -59.333 3.5 -107.666 10.5 -144.999s19.833 -65.5 38.5 -84.5s44.334 -28.5 77.001 -28.5c49.333 0 82.833 21 100.5 63s26.5 108.333 26.5 199zM1700 366.999c0 -127.333 -27.999 -221.999 -83.999 -283.999s-132.667 -93 -230 -93
c-60.667 0 -114.834 13.333 -162.501 40s-85 67.667 -112 123s-40.5 123.666 -40.5 204.999c0 130 24.833 227.833 74.5 293.5s128.5 98.5 236.5 98.5c52 0 97.5 -8 136.5 -24s72.333 -40 100 -72s48.167 -71.833 61.5 -119.5s20 -103.5 20 -167.5zM1513 377
c0 86 -9.33203 148.832 -27.999 188.499s-51.667 59.5 -99 59.5c-33.333 0 -59.333 -9.33301 -78 -28s-31.834 -46.167 -39.501 -82.5s-11.5 -83.5 -11.5 -141.5c0 -89.333 9.5 -154.666 28.5 -195.999s52.5 -62 100.5 -62c48.667 0 82 21.167 100 63.5s27 108.5 27 198.5z
M1343 1343l-833.001 -1343c-21.333 -36.667 -45.333 -55 -72 -55c-15.333 0 -30.666 5.83301 -45.999 17.5s-23 26.834 -23 45.501c0 14 6.66699 31 20 51l838 1354c14.667 24.667 27.5 43.167 38.5 55.5s26.833 18.5 47.5 18.5c20 0 36.167 -5.83301 48.5 -17.5
s18.5 -27.167 18.5 -46.5c0 -14 -12.333 -40.667 -37 -80z" />
    <glyph glyph-name="ampersand" unicode="&#x26;" horiz-adv-x="1556" 
d="M317 1155c0 62 16.1641 118.502 48.4971 169.502s79.833 91.5 142.5 121.5s136.334 45 221.001 45c84 0 156.667 -15.667 218 -47s107.166 -72.333 137.499 -123s45.5 -103.334 45.5 -158.001c0 -74.667 -24.667 -139.667 -74 -195s-122 -111.666 -218 -168.999l93 -111
l83 -97c26.667 -30 51 -55.667 73 -77c10 18.667 25.5 53.667 46.5 105s40.667 88.333 59 111s44.166 34 77.499 34c31.333 0 59 -11.167 83 -33.5s36 -49.5 36 -81.5c0 -29.333 -10.333 -70.833 -31 -124.5s-50.667 -113.167 -90 -178.5l117.5 -97
c53.667 -43.333 86.667 -72.833 99 -88.5s18.5 -36.5 18.5 -62.5c0 -34.667 -12.5 -63.834 -37.5 -87.501s-52.833 -35.5 -83.5 -35.5c-31.333 0 -61.666 10 -90.999 30s-91.666 69 -186.999 147c-43.333 -40.667 -88.166 -74 -134.499 -100s-96 -45.333 -149 -58
s-112.167 -19 -177.5 -19c-83.333 0 -158.166 12.167 -224.499 36.5s-121.5 57.166 -165.5 98.499s-76.667 87.166 -98 137.499s-32 101.5 -32 153.5c0 50 8 95.833 24 137.5s38.5 79.334 67.5 113.001s64.667 65.667 107 96s91.5 59.833 147.5 88.5
c-50 62.667 -87.833 118.5 -113.5 167.5s-38.5 99.5 -38.5 151.5zM599.997 676.002c-68 -39.333 -118.835 -78.6689 -152.502 -118.002s-50.5 -86 -50.5 -140c0 -30.667 6.16699 -60 18.5 -88s30.333 -54 54 -78s51.167 -42.333 82.5 -55s64.333 -19 99 -19
c34 0 67 5.33301 99 16s62.333 25.834 91 45.501s58.334 44.167 89.001 73.5c-59.333 54.667 -112.666 108.834 -159.999 162.501zM701.995 949.999c68 43.333 117.167 79.834 147.5 109.501s45.5 65.5 45.5 107.5c0 41.333 -15.167 76 -45.5 104s-68.5 42 -114.5 42
s-84.5 -14.333 -115.5 -43s-46.5 -62.334 -46.5 -101.001c0 -20 5.83301 -41.5 17.5 -64.5s26.167 -45.833 43.5 -68.5z" />
    <glyph glyph-name="quotesingle" unicode="'" horiz-adv-x="492" 
d="M352 944h-207l-53 275v247h307v-247z" />
    <glyph glyph-name="parenleft" unicode="(" horiz-adv-x="725" 
d="M129 530c0 100.667 8.66895 194.835 26.002 282.502s43.666 174 78.999 259s79 170.167 131 255.5c31.333 52 57.666 89.5 78.999 112.5s41.5 37.333 60.5 43s43.5 8.5 73.5 8.5c32.667 0 49 -9 49 -27c0 -6 -15.333 -42.167 -46 -108.5s-59.5 -135.833 -86.5 -208.5
s-52 -163.334 -75 -272.001s-34.5 -223.667 -34.5 -345c0 -120 11.333 -233.667 34 -341s48.5 -200.333 77.5 -279s58 -149.167 87 -211.5s43.5 -96.166 43.5 -101.499c0 -18 -16.333 -27 -49 -27c-30.667 0 -55.5 3.16699 -74.5 9.5s-38.833 21.166 -59.5 44.499
s-47 60.666 -79 111.999c-52.667 88 -96.167 172.833 -130.5 254.5s-60.5 166.5 -78.5 254.5s-27 183 -27 285z" />
    <glyph glyph-name="parenright" unicode=")" horiz-adv-x="725" 
d="M598 530c0 -146.667 -19.498 -283.002 -58.498 -409.002s-98.167 -254.333 -177.5 -385c-44.667 -73.333 -80 -119.333 -106 -138s-61.333 -28 -106 -28c-33.333 0 -50 9 -50 27c0 6 14 38.167 42 96.5s57.167 127.833 87.5 208.5s56.666 175.5 78.999 284.5
s33.5 223.5 33.5 343.5c0 120.667 -11.333 235.667 -34 345s-49 204 -79 284s-59 149.5 -87 208.5s-42 91.167 -42 96.5c0 18 16.667 27 50 27c46.667 0 82.667 -8.83301 108 -26.5s60 -63.5 104 -137.5c39.333 -65.333 73.666 -129.666 102.999 -192.999
s53.833 -126.666 73.5 -189.999s34.5 -129.333 44.5 -198s15 -140.667 15 -216z" />
    <glyph glyph-name="asterisk" unicode="*" horiz-adv-x="897" 
d="M504 1221c43.333 20 84.667 40 124 60s70.666 34.667 93.999 44s42 14 56 14c23.333 0 43.5 -7.83301 60.5 -23.5s25.5 -35.167 25.5 -58.5c0 -13.333 -4.16699 -27.166 -12.5 -41.499s-17.166 -23.5 -26.499 -27.5c-86 -34 -180.667 -58.667 -284 -74
c18.667 -17.333 41.667 -40.333 69 -69s41.666 -44 42.999 -46c10 -14 24 -31.333 42 -52s30.5 -36.834 37.5 -48.501s10.5 -25.834 10.5 -42.501c0 -21.333 -8 -40 -24 -56s-36.667 -24 -62 -24s-53.833 19.667 -85.5 59s-72.5 110 -122.5 212
c-50.667 -92 -84.667 -152.667 -102 -182s-34 -51.5 -50 -66.5s-34.333 -22.5 -55 -22.5c-24.667 0 -45.167 8.5 -61.5 25.5s-24.5 35.167 -24.5 54.5c0 18 3.33301 31.667 10 41c61.333 83.333 125.333 155.666 192 216.999c-56 8.66699 -106 18.334 -150 29.001
s-90.667 26.334 -140 47.001c-8 4 -15.833 13.167 -23.5 27.5s-11.5 27.5 -11.5 39.5c0 23.333 8.5 42.833 25.5 58.5s36.5 23.5 58.5 23.5c16 0 36 -4.83301 60 -14.5s54.5 -23.667 91.5 -42l126.5 -61.5c-8.66699 42 -15.834 90.167 -21.501 144.5s-8.5 91.5 -8.5 111.5
c0 24.667 7.83301 45.834 23.5 63.501s35.834 26.5 60.501 26.5c24 0 43.833 -8.83301 59.5 -26.5s23.5 -41.167 23.5 -70.5c0 -8 -1.16699 -23.833 -3.5 -47.5s-5.66602 -52.334 -9.99902 -86.001z" />
    <glyph glyph-name="plus" unicode="+" horiz-adv-x="1194" 
d="M725 211h-258v381h-383v262h383v383h258v-383h385v-262h-385v-381z" />
    <glyph glyph-name="comma" unicode="," horiz-adv-x="641" 
d="M326 -27c-44 0 -82 13.502 -114 40.502s-48 64.833 -48 113.5c0 42 15.667 77.333 47 106s68.333 43 111 43c32 0 61 -8.66699 87 -26s46.333 -42.833 61 -76.5s22 -75.167 22 -124.5c0 -66 -14 -127.833 -42 -185.5s-62.167 -103.334 -102.5 -137.001
s-76.833 -50.5 -109.5 -50.5c-20.667 0 -37.5 6.83301 -50.5 20.5s-19.5 29.5 -19.5 47.5c0 27.333 13.667 49.333 41 66c78 43.333 117 97.666 117 162.999z" />
    <glyph glyph-name="hyphen" unicode="-" horiz-adv-x="682" 
d="M500 412h-315.998c-48 0 -84.5 11.167 -109.5 33.5s-37.5 51.166 -37.5 86.499c0 36 12.167 65.167 36.5 87.5s61.166 33.5 110.499 33.5h316c49.333 0 86.166 -11.167 110.499 -33.5s36.5 -51.5 36.5 -87.5c0 -35.333 -12 -64.166 -36 -86.499s-61 -33.5 -111 -33.5z
" />
    <glyph glyph-name="hyphen" unicode="&#xad;" horiz-adv-x="682" 
d="M500 412h-315.998c-48 0 -84.5 11.167 -109.5 33.5s-37.5 51.166 -37.5 86.499c0 36 12.167 65.167 36.5 87.5s61.166 33.5 110.499 33.5h316c49.333 0 86.166 -11.167 110.499 -33.5s36.5 -51.5 36.5 -87.5c0 -35.333 -12 -64.166 -36 -86.499s-61 -33.5 -111 -33.5z
" />
    <glyph glyph-name="period" unicode="." horiz-adv-x="641" 
d="M322 -25c-41.333 0 -77 13.333 -107 40s-45 64 -45 112c0 40.667 14.333 75.667 43 105s64 44 106 44s77.833 -14.5 107.5 -43.5s44.5 -64.167 44.5 -105.5c0 -47.333 -14.833 -84.5 -44.5 -111.5s-64.5 -40.5 -104.5 -40.5z" />
    <glyph glyph-name="slash" unicode="/" horiz-adv-x="575" 
d="M528 1288l-280.001 -1153c-9.33301 -38 -17.5 -68 -24.5 -90s-17.667 -39.167 -32 -51.5s-35.166 -18.5 -62.499 -18.5c-68 0 -102 29.333 -102 88c0 15.333 6.66699 53.666 20 114.999l279 1153c14.667 61.333 28.667 103.333 42 126s39.333 34 78 34
c33.333 0 58.833 -8 76.5 -24s26.5 -38 26.5 -66c0 -20.667 -7 -58.334 -21 -113.001z" />
    <glyph glyph-name="zero" unicode="0" 
d="M1120 719c0 -109.333 -6.66699 -203.332 -20 -281.999s-38 -150 -74 -214c-45.333 -78.667 -104 -139.334 -176 -182.001s-152 -64 -240 -64c-101.333 0 -192.166 28.667 -272.499 86s-140.833 136.666 -181.5 237.999c-20.667 55.333 -35.834 116.5 -45.501 183.5
s-14.5 139.5 -14.5 217.5c0 100.667 5.33301 191.334 16 272.001s27.334 150 50.001 208c39.333 96 96.5 169.167 171.5 219.5s164.5 75.5 268.5 75.5c68.667 0 131 -11.167 187 -33.5s105.167 -55 147.5 -98s78.166 -96.167 107.499 -159.5
c50.667 -110 76 -265.667 76 -467zM846 739.001c0 122 -7.33301 221.833 -22 299.5s-39.334 136.334 -74.001 176.001s-82.667 59.5 -144 59.5c-88 0 -149.167 -44.333 -183.5 -133s-51.5 -225.334 -51.5 -410.001c0 -125.333 7.33301 -228 22 -308
s39.334 -140.5 74.001 -181.5s81.667 -61.5 141 -61.5c61.333 0 109.333 21.333 144 64s59 103.667 73 183s21 183.333 21 312z" />
    <glyph glyph-name="one" unicode="1" 
d="M578 137l0.00488281 910.002c-169.333 -130 -283.333 -195 -342 -195c-28 0 -52.833 11.167 -74.5 33.5s-32.5 48.166 -32.5 77.499c0 34 10.667 59 32 75s59 36.667 113 62c80.667 38 145.167 78 193.5 120s91.166 89 128.499 141s61.666 84 72.999 96
s32.666 18 63.999 18c35.333 0 63.666 -13.667 84.999 -41s32 -65 32 -113v-1145c0 -134 -45.667 -201 -137 -201c-40.667 0 -73.334 13.667 -98.001 41s-37 67.666 -37 120.999z" />
    <glyph glyph-name="two" unicode="2" 
d="M457 236l522.001 -0.00292969c52 0 91.667 -10.667 119 -32s41 -50.333 41 -87c0 -32.667 -10.833 -60.334 -32.5 -83.001s-54.5 -34 -98.5 -34h-736c-50 0 -89 13.833 -117 41.5s-42 60.167 -42 97.5c0 24 9 55.833 27 95.5s37.667 70.834 59 93.501
c88.667 92 168.667 170.833 240 236.5s122.333 108.834 153 129.501c54.667 38.667 100.167 77.5 136.5 116.5s64 79 83 120s28.5 81.167 28.5 120.5c0 42.667 -10.167 80.834 -30.5 114.501s-48 59.834 -83 78.501s-73.167 28 -114.5 28c-87.333 0 -156 -38.333 -206 -115
c-6.66699 -10 -17.834 -37.333 -33.501 -82s-33.334 -79 -53.001 -103s-48.5 -36 -86.5 -36c-33.333 0 -61 11 -83 33s-33 52 -33 90c0 46 10.333 94 31 144s51.5 95.333 92.5 136s93 73.5 156 98.5s136.833 37.5 221.5 37.5c102 0 189 -16 261 -48
c46.667 -21.333 87.667 -50.666 123 -87.999s62.833 -80.5 82.5 -129.5s29.5 -99.833 29.5 -152.5c0 -82.667 -20.5 -157.834 -61.5 -225.501s-82.833 -120.667 -125.5 -159s-114.167 -98.5 -214.5 -180.5s-169.166 -145.667 -206.499 -191c-16 -18 -32.333 -39.667 -49 -65
z" />
    <glyph glyph-name="three" unicode="3" 
d="M561 885c61.333 0 114.167 18.002 158.5 54.002s66.5 87.667 66.5 155c0 51.333 -17.667 95.5 -53 132.5s-83 55.5 -143 55.5c-40.667 0 -74.167 -5.66699 -100.5 -17s-47.166 -26.333 -62.499 -45s-29.833 -42.667 -43.5 -72l-37.5 -83
c-6.66699 -14 -18.667 -25 -36 -33s-37.333 -12 -60 -12c-26.667 0 -51.167 10.833 -73.5 32.5s-33.5 50.5 -33.5 86.5c0 34.667 10.5 71.167 31.5 109.5s51.667 74.833 92 109.5s90.5 62.5 150.5 83.5s127 31.5 201 31.5c64.667 0 123.667 -8.83301 177 -26.5
s99.666 -43.167 138.999 -76.5s69 -72 89 -116s30 -91.333 30 -142c0 -66.667 -14.5 -123.834 -43.5 -171.501s-70.5 -94.167 -124.5 -139.5c52 -28 95.833 -60 131.5 -96s62.5 -75.833 80.5 -119.5s27 -90.834 27 -141.501c0 -60.667 -12.167 -119.334 -36.5 -176.001
s-60.166 -107.167 -107.499 -151.5s-103.5 -79 -168.5 -104s-136.833 -37.5 -215.5 -37.5c-80 0 -151.667 14.333 -215 43s-115.5 64.5 -156.5 107.5s-72 87.5 -93 133.5s-31.5 84 -31.5 114c0 38.667 12.5 69.834 37.5 93.501s56.167 35.5 93.5 35.5
c18.667 0 36.667 -5.5 54 -16.5s28.666 -24.167 33.999 -39.5c34.667 -92.667 71.834 -161.5 111.501 -206.5s95.5 -67.5 167.5 -67.5c41.333 0 81.166 10.167 119.499 30.5s70 50.5 95 90.5s37.5 86.333 37.5 139c0 78 -21.333 139.167 -64 183.5s-102 66.5 -178 66.5
c-13.333 0 -34 -1.33301 -62 -4s-46 -4 -54 -4c-36.667 0 -65 9.16699 -85 27.5s-30 43.833 -30 76.5c0 32 12 57.833 36 77.5s59.667 29.5 107 29.5h41z" />
    <glyph glyph-name="four" unicode="4" 
d="M717 127l0.000976562 186.002h-502c-63.333 0 -110.833 14.333 -142.5 43s-47.5 67.667 -47.5 117c0 12.667 2.33301 25.5 7 38.5s11.667 26.667 21 41s19 28.166 29 41.499l37 49l530 709c34.667 46.667 63.167 80.5 85.5 101.5s49.166 31.5 80.499 31.5
c101.333 0 152 -58 152 -174v-774h43c51.333 0 92.5 -7 123.5 -21s46.5 -44.667 46.5 -92c0 -38.667 -12.667 -66.834 -38 -84.501s-63.333 -26.5 -114 -26.5h-61v-186c0 -51.333 -11.333 -89.5 -34 -114.5s-53 -37.5 -91 -37.5c-37.333 0 -67.5 12.833 -90.5 38.5
s-34.5 63.5 -34.5 113.5zM287.001 537.002h430v581z" />
    <glyph glyph-name="five" unicode="5" 
d="M948 1219h-475l-57 -324c94.667 50.667 182 76 262 76c64 0 123.833 -12 179.5 -36s104.5 -57.167 146.5 -99.5s75 -92.5 99 -150.5s36 -120.333 36 -187c0 -96.667 -21.667 -184.667 -65 -264s-105.833 -142.333 -187.5 -189s-175.834 -70 -282.501 -70
c-119.333 0 -216.166 22 -290.499 66s-127 94.5 -158 151.5s-46.5 106.833 -46.5 149.5c0 26 10.833 50.667 32.5 74s48.834 35 81.501 35c56 0 97.667 -32.333 125 -97c26.667 -59.333 62.667 -105.5 108 -138.5s96 -49.5 152 -49.5c51.333 0 96.333 13.333 135 40
s68.5 63.334 89.5 110.001s31.5 99.667 31.5 159c0 64 -11.333 118.667 -34 164s-53 79.166 -91 101.499s-80.333 33.5 -127 33.5c-57.333 0 -98.333 -7 -123 -21s-60.167 -38.5 -106.5 -73.5s-84.5 -52.5 -114.5 -52.5c-32.667 0 -61.667 11.833 -87 35.5
s-38 50.5 -38 80.5c0 3.33301 3.66699 26 11 68l84 479c9.33301 57.333 26.666 99 51.999 125s66.666 39 123.999 39h528c104 0 156 -39.667 156 -119c0 -34.667 -12.667 -62.667 -38 -84s-62.666 -32 -111.999 -32z" />
    <glyph glyph-name="six" unicode="6" 
d="M371 793c45.333 54 94.667 94 148 120s113 39 179 39c63.333 0 121.833 -11.833 175.5 -35.5s100.667 -57.334 141 -101.001s71.5 -95.167 93.5 -154.5s33 -121.333 33 -186c0 -94 -21.5 -179.333 -64.5 -256s-103 -136.5 -180 -179.5s-164.167 -64.5 -261.5 -64.5
c-112 0 -208.667 27.333 -290 82s-143.5 135.5 -186.5 242.5s-64.5 237.833 -64.5 392.5c0 126 13 238.667 39 338s63.333 181.666 112 246.999s107.667 114.666 177 147.999s148.333 50 237 50c85.333 0 160.5 -16.667 225.5 -50s114 -74.666 147 -123.999
s49.5 -96.666 49.5 -141.999c0 -27.333 -10.333 -52.166 -31 -74.499s-47 -33.5 -79 -33.5c-28 0 -54 8.83301 -78 26.5s-41.667 42.167 -53 73.5c-15.333 40 -39.666 72.167 -72.999 96.5s-72 36.5 -116 36.5c-35.333 0 -70.5 -10.167 -105.5 -30.5
s-64.5 -47.833 -88.5 -82.5c-48.667 -70.667 -77.334 -196.667 -86.001 -378zM641.001 172c67.333 0 122.999 27.499 166.999 82.499s66 127.167 66 216.5c0 60.667 -10.333 112.834 -31 156.501s-49 77 -85 100s-75.667 34.5 -119 34.5c-41.333 0 -80.833 -11 -118.5 -33
s-68 -53.833 -91 -95.5s-34.5 -90.5 -34.5 -146.5c0 -90 23.333 -165 70 -225s105.334 -90 176.001 -90z" />
    <glyph glyph-name="seven" unicode="7" 
d="M319 1452l666.002 0.00292969c64 0 110.333 -10 139 -30s43 -53 43 -99c0 -28 -16.833 -65 -50.5 -111l-115 -152.5c-43 -55.667 -87.333 -124.834 -133 -207.501s-87.5 -183.667 -125.5 -303c-16 -52.667 -27.333 -96.334 -34 -131.001s-14 -79.667 -22 -135
s-15 -97.666 -21 -126.999c-14 -68 -33.833 -115.167 -59.5 -141.5s-59.834 -39.5 -102.501 -39.5c-40.667 0 -73.334 14.167 -98.001 42.5s-37 70.166 -37 125.499c0 42.667 9 100.667 27 174s47.333 161.166 88 263.499s91.5 207.333 152.5 315
s133.5 214.834 217.5 321.501h-535c-56 0 -97.833 10.167 -125.5 30.5s-41.5 52.166 -41.5 95.499c0 46 14.667 75.667 44 89s70.333 20 123 20z" />
    <glyph glyph-name="eight" unicode="8" 
d="M137 1094c0 66.667 18.1719 129.498 54.5049 188.498s89.666 106.167 159.999 141.5s152.5 53 246.5 53c79.333 0 149 -10.333 209 -31s110 -49.167 150 -85.5s69.667 -77.333 89 -123s29 -94.167 29 -145.5c0 -65.333 -16.833 -123.666 -50.5 -174.999
s-83.834 -93.333 -150.501 -126c56.667 -22 103.667 -50.833 141 -86.5s65.5 -77 84.5 -124s28.5 -99.167 28.5 -156.5c0 -84 -20.333 -160.167 -61 -228.5s-100.334 -121.833 -179.001 -160.5s-171.334 -58 -278.001 -58c-110.667 0 -205.334 19.333 -284.001 58
s-138 91.834 -178 159.501s-60 143.5 -60 227.5c0 179.333 84.667 302.333 254 369c-136.667 64 -205 165 -205 303zM854.005 431.998c0 52 -10.666 97.332 -31.999 135.999s-51.333 68.334 -90 89.001s-82 31 -130 31c-68 0 -125 -22.667 -171 -68
s-69 -108.666 -69 -189.999c0 -52 10.833 -97.833 32.5 -137.5s51.167 -70.334 88.5 -92.001s79 -32.5 125 -32.5c46.667 0 88.667 11 126 33s66.666 53 87.999 93s32 86 32 138zM604.006 1286c-62.667 0 -113.167 -19.4971 -151.5 -58.4971s-57.5 -89.167 -57.5 -150.5
c0 -56.667 19.667 -103.834 59 -141.501s90 -56.5 152 -56.5c31.333 0 59.833 5 85.5 15s47.667 23.833 66 41.5s32.5 38.667 42.5 63s15 51.166 15 80.499c0 39.333 -8.83301 74.666 -26.5 105.999s-42.5 56 -74.5 74s-68.667 27 -110 27z" />
    <glyph glyph-name="nine" unicode="9" 
d="M834 657c-44 -52 -93.168 -91.165 -147.501 -117.498s-114.5 -39.5 -180.5 -39.5c-62.667 0 -121.167 12.167 -175.5 36.5s-101.333 58.333 -141 102s-70.167 94.667 -91.5 153s-32 119.5 -32 183.5c0 68.667 12 133.834 36 195.501s58.333 115.167 103 160.5
s97.834 80.666 159.501 105.999s129.834 38 204.501 38c86 0 162.667 -15.667 230 -47s124 -76.833 170 -136.5s81.333 -134.834 106 -225.501s37 -193.334 37 -308.001c0 -128 -13 -240.833 -39 -338.5s-63.833 -179.667 -113.5 -246s-109.167 -115.666 -178.5 -147.999
s-148 -48.5 -236 -48.5c-86.667 0 -162 16.5 -226 49.5s-112.667 74 -146 123s-50 96.167 -50 141.5c0 28 10.333 53 31 75s47 33 79 33c29.333 0 55.666 -8.16699 78.999 -24.5s41 -40.833 53 -73.5c14.667 -40 39 -72.167 73 -96.5s72.333 -36.5 115 -36.5
c38 0 74 9.66699 108 29s63 46.666 87 81.999c48 71.333 76.667 197.333 86 378zM810.999 963.002c0 45.333 -6.16895 87.167 -18.502 125.5s-29.666 71.5 -51.999 99.5s-49 50 -80 66s-64.833 24 -101.5 24c-63.333 0 -117 -27.167 -161 -81.5s-66 -126.166 -66 -215.499
c0 -88.667 22 -159.334 66 -212.001s99.667 -79 167 -79c41.333 0 80.833 10.833 118.5 32.5s68.334 53.167 92.001 94.5s35.5 90 35.5 146z" />
    <glyph glyph-name="colon" unicode=":" horiz-adv-x="641" 
d="M322 -25c-41.333 0 -77 13.333 -107 40s-45 64 -45 112c0 40.667 14.333 75.667 43 105s64 44 106 44s77.833 -14.5 107.5 -43.5s44.5 -64.167 44.5 -105.5c0 -47.333 -14.833 -84.5 -44.5 -111.5s-64.5 -40.5 -104.5 -40.5zM170 936
c0 47.333 14.833 83.999 44.5 109.999s65.5 39 107.5 39c40.667 0 75.667 -13.167 105 -39.5s44 -62.833 44 -109.5c0 -37.333 -16 -71.666 -48 -102.999s-66.667 -47 -104 -47c-40.667 0 -75.667 15 -105 45s-44 65 -44 105z" />
    <glyph glyph-name="semicolon" unicode=";" horiz-adv-x="641" 
d="M307 -27c-44 0 -81.999 13.501 -113.999 40.501s-48 64.833 -48 113.5c0 42 15.667 77.333 47 106s68.333 43 111 43c32 0 61 -8.66699 87 -26s46.333 -42.833 61 -76.5s22 -75.167 22 -124.5c0 -66 -14 -127.833 -42 -185.5s-62.167 -103.334 -102.5 -137.001
s-76.833 -50.5 -109.5 -50.5c-20.667 0 -37.334 6.83301 -50.001 20.5s-19 29.5 -19 47.5c0 27.333 13.333 49.333 40 66c78 42.667 117 97 117 163zM170.001 936.001c0 47.333 14.833 84.001 44.5 110.001s65.5 39 107.5 39c40.667 0 75.667 -13.167 105 -39.5
s44 -62.833 44 -109.5c0 -38 -15.5 -72.5 -46.5 -103.5s-65.167 -46.5 -102.5 -46.5c-28 0 -53.5 6.66699 -76.5 20s-41.333 31.166 -55 53.499s-20.5 47.833 -20.5 76.5z" />
    <glyph glyph-name="less" unicode="&#x3c;" horiz-adv-x="1194" 
d="M1100 451v-283l-1006 436v242l1006 436v-285l-701 -270z" />
    <glyph glyph-name="equal" unicode="=" horiz-adv-x="1194" 
d="M1110 371h-1026v262h1026v-262zM1110 815h-1026v262h1026v-262z" />
    <glyph glyph-name="greater" unicode="&#x3e;" horiz-adv-x="1194" 
d="M1100 604l-1006 -438v283l703 276l-703 272v281l1006 -434v-240z" />
    <glyph glyph-name="question" unicode="?" horiz-adv-x="1174" 
d="M90 1073c0 63.333 20.3379 127.502 61.0049 192.502s100 118.833 178 161.5s169 64 273 64c96.667 0 182 -17.833 256 -53.5s131.167 -84.167 171.5 -145.5s60.5 -128 60.5 -200c0 -56.667 -11.5 -106.334 -34.5 -149.001s-50.333 -79.5 -82 -110.5
s-88.5 -83.167 -170.5 -156.5c-22.667 -20.667 -40.834 -38.834 -54.501 -54.501s-23.834 -30 -30.501 -43s-11.834 -26 -15.501 -39s-9.16699 -35.833 -16.5 -68.5c-12.667 -69.333 -52.334 -104 -119.001 -104c-34.667 0 -63.834 11.333 -87.501 34
s-35.5 56.334 -35.5 101.001c0 56 8.66699 104.5 26 145.5s40.333 77 69 108s67.334 67.833 116.001 110.5c42.667 37.333 73.5 65.5 92.5 84.5s35 40.167 48 63.5s19.5 48.666 19.5 75.999c0 53.333 -19.833 98.333 -59.5 135s-90.834 55 -153.501 55
c-73.333 0 -127.333 -18.5 -162 -55.5s-64 -91.5 -88 -163.5c-22.667 -75.333 -65.667 -113 -129 -113c-37.333 0 -68.833 13.167 -94.5 39.5s-38.5 54.833 -38.5 85.5zM578.005 -22.998c-40.667 0 -76.167 13.1689 -106.5 39.502s-45.5 63.166 -45.5 110.499
c0 42 14.667 77.333 44 106s65.333 43 108 43c42 0 77.333 -14.333 106 -43s43 -64 43 -106c0 -46.667 -15 -83.334 -45 -110.001s-64.667 -40 -104 -40z" />
    <glyph glyph-name="at" unicode="@" horiz-adv-x="2005" 
d="M1243 948l25.0039 110.999h264l-152 -717c-9.33301 -45.333 -14 -75.333 -14 -90c0 -15.333 3.83301 -27.333 11.5 -36s16.834 -13 27.501 -13c36 0 82.5 23.5 139.5 70.5s106.667 111 149 192s63.5 169.5 63.5 265.5c0 80 -15.167 155.333 -45.5 226
s-74.166 132 -131.499 184s-128.166 92.667 -212.499 122s-179.833 44 -286.5 44c-108.667 0 -208.334 -14.167 -299.001 -42.5s-170.334 -69 -239.001 -122s-126 -118.5 -172 -196.5c-40.667 -68 -71.667 -143.333 -93 -226s-32 -167 -32 -253
c0 -114.667 22.833 -219.5 68.5 -314.5s112 -174.667 199 -239s192.167 -110 315.5 -137s262.666 -32.5 417.999 -16.5c123.333 14.667 227.833 42.667 313.5 84s158.167 99.333 217.5 174h213c-34.667 -71.333 -79.834 -135 -135.501 -191
s-120.834 -103.167 -195.501 -141.5s-158.334 -67.5 -251.001 -87.5s-193.667 -30 -303 -30c-164 0 -311.667 21.5 -443 64.5s-241.833 105 -331.5 186s-157.5 177.667 -203.5 290s-69 236.5 -69 372.5c0 142 23.667 274.667 71 398s115.5 230.5 204.5 321.5
s197.667 162.167 326 213.5s269.833 77 424.5 77c126.667 0 242.834 -18.5 348.501 -55.5s196.167 -90.167 271.5 -159.5s132.833 -151.5 172.5 -246.5s59.5 -199.833 59.5 -314.5c0 -89.333 -16 -176.833 -48 -262.5s-77.833 -162.667 -137.5 -231
s-129.834 -122.333 -210.501 -162s-167.667 -59.5 -261 -59.5c-54 0 -96 9.16699 -126 27.5s-50 47.5 -60 87.5c-58 -57.333 -124.667 -93.5 -200 -108.5s-148.333 -8 -219 21s-127.834 77.833 -171.501 146.5s-65.5 153.334 -65.5 254.001c0 104.667 22.5 207.667 67.5 309
s109 184.333 192 249s176.833 97 281.5 97c120 0 208 -45 264 -135zM696.004 429.999c0 -80 16.6641 -141.33 49.9971 -183.997s77 -64 131 -64c62.667 0 117.834 25 165.501 75s83.834 113.167 108.501 189.5s37 150.166 37 221.499c0 35.333 -4.16699 67.166 -12.5 95.499
s-20.666 53.166 -36.999 74.499s-36 37.5 -59 48.5s-49.167 16.5 -78.5 16.5c-58.667 0 -111.5 -22.833 -158.5 -68.5s-83.167 -105 -108.5 -178s-38 -148.5 -38 -226.5z" />
    <glyph glyph-name="A" unicode="A" horiz-adv-x="1473" 
d="M1098 166l-70.002 184.003h-596l-70 -188c-27.333 -73.333 -50.666 -122.833 -69.999 -148.5s-51 -38.5 -95 -38.5c-37.333 0 -70.333 13.667 -99 41s-43 58.333 -43 93c0 20 3.33301 40.667 10 62s17.667 51 33 89l375 952l38.5 98.5c15 38.333 31 70.166 48 95.499
s39.333 45.833 67 61.5s61.834 23.5 102.501 23.5c41.333 0 75.833 -7.83301 103.5 -23.5s50 -35.834 67 -60.501s31.333 -51.167 43 -79.5l44.5 -113.5l383 -946c30 -72 45 -124.333 45 -157c0 -34 -14.167 -65.167 -42.5 -93.5s-62.5 -42.5 -102.5 -42.5
c-23.333 0 -43.333 4.16699 -60 12.5s-30.667 19.666 -42 33.999s-23.5 36.333 -36.5 66zM509.998 573.003h438l-221 605z" />
    <glyph glyph-name="B" unicode="B" horiz-adv-x="1473" 
d="M786 0l-447.999 0.00195312c-64.667 0 -110.834 14.5 -138.501 43.5s-41.5 75.167 -41.5 138.5v1102c0 64.667 14.167 111.167 42.5 139.5s74.166 42.5 137.499 42.5h475c70 0 130.667 -4.33301 182 -13s97.333 -25.334 138 -50.001
c34.667 -20.667 65.334 -46.834 92.001 -78.501s47 -66.667 61 -105s21 -78.833 21 -121.5c0 -146.667 -73.333 -254 -220 -322c192.667 -61.333 289 -180.666 289 -357.999c0 -82 -21 -155.833 -63 -221.5s-98.667 -114.167 -170 -145.5
c-44.667 -18.667 -96 -31.834 -154 -39.501s-125.667 -11.5 -203 -11.5zM764.001 651.002h-309v-428h319c200.667 0 301 72.333 301 217c0 74 -26 127.667 -78 161s-129.667 50 -233 50zM455.001 1243l0.000976562 -379h272c74 0 131.167 7 171.5 21
s71.166 40.667 92.499 80c16.667 28 25 59.333 25 94c0 74 -26.333 123.167 -79 147.5s-133 36.5 -241 36.5h-241z" />
    <glyph glyph-name="C" unicode="C" horiz-adv-x="1516" 
d="M1409 463c0 -46.667 -11.5029 -97.166 -34.5029 -151.499s-59.167 -107.666 -108.5 -159.999s-112.333 -94.833 -189 -127.5s-166 -49 -268 -49c-77.333 0 -147.666 7.33301 -210.999 22s-120.833 37.5 -172.5 68.5s-99.167 71.833 -142.5 122.5
c-38.667 46 -71.667 97.5 -99 154.5s-47.833 117.833 -61.5 182.5s-20.5 133.334 -20.5 206.001c0 118 17.167 223.667 51.5 317s83.5 173.166 147.5 239.499s139 116.833 225 151.5s177.667 52 275 52c118.667 0 224.334 -23.667 317.001 -71s163.667 -105.833 213 -175.5
s74 -135.5 74 -197.5c0 -34 -12 -64 -36 -90s-53 -39 -87 -39c-38 0 -66.5 9 -85.5 27s-40.167 49 -63.5 93c-38.667 72.667 -84.167 127 -136.5 163s-116.833 54 -193.5 54c-122 0 -219.167 -46.333 -291.5 -139s-108.5 -224.334 -108.5 -395.001
c0 -114 16 -208.833 48 -284.5s77.333 -132.167 136 -169.5s127.334 -56 206.001 -56c85.333 0 157.5 21.167 216.5 63.5s103.5 104.5 133.5 186.5c12.667 38.667 28.334 70.167 47.001 94.5s48.667 36.5 90 36.5c35.333 0 65.666 -12.333 90.999 -37s38 -55.334 38 -92.001
z" />
    <glyph glyph-name="D" unicode="D" horiz-adv-x="1516" 
d="M344 1466h387c100.667 0 187 -9.33301 259 -28s137.333 -53.667 196 -105c152.667 -130.667 229 -329.334 229 -596.001c0 -88 -7.66699 -168.333 -23 -241s-39 -138.167 -71 -196.5s-73 -110.5 -123 -156.5c-39.333 -35.333 -82.333 -63.666 -129 -84.999
s-96.834 -36.333 -150.501 -45s-114.167 -13 -181.5 -13h-387c-54 0 -94.667 8.16699 -122 24.5s-45.166 39.333 -53.499 69s-12.5 68.167 -12.5 115.5v1075c0 64 14.333 110.333 43 139s75 43 139 43zM459 1231v-995.001h225c49.333 0 88 1.33301 116 4
s57 9.33398 87 20.001s56 25.667 78 45c99.333 84 149 228.667 149 434c0 144.667 -21.833 253 -65.5 325s-97.5 117.833 -161.5 137.5s-141.333 29.5 -232 29.5h-196z" />
    <glyph glyph-name="E" unicode="E" horiz-adv-x="1366" 
d="M1126 1237h-668.999v-360h616c45.333 0 79.166 -10.167 101.499 -30.5s33.5 -47.166 33.5 -80.499s-11 -60.5 -33 -81.5s-56 -31.5 -102 -31.5h-616v-417h692c46.667 0 81.834 -10.833 105.501 -32.5s35.5 -50.5 35.5 -86.5c0 -34.667 -11.833 -62.834 -35.5 -84.501
s-58.834 -32.5 -105.501 -32.5h-807c-64.667 -0 -111.167 14.333 -139.5 43s-42.5 75 -42.5 139v1102c0 42.667 6.33301 77.5 19 104.5s32.5 46.667 59.5 59s61.5 18.5 103.5 18.5h784c47.333 0 82.5 -10.5 105.5 -31.5s34.5 -48.5 34.5 -82.5
c0 -34.667 -11.5 -62.5 -34.5 -83.5s-58.167 -31.5 -105.5 -31.5z" />
    <glyph glyph-name="F" unicode="F" horiz-adv-x="1237" 
d="M1036 1237h-584.998v-375h489c45.333 0 79.166 -10.167 101.499 -30.5s33.5 -47.5 33.5 -81.5s-11.333 -61 -34 -81s-56.334 -30 -101.001 -30h-489v-483c0 -61.333 -13.833 -106.833 -41.5 -136.5s-63.167 -44.5 -106.5 -44.5c-44 0 -79.833 15 -107.5 45
s-41.5 75.333 -41.5 136v1128c0 42.667 6.33301 77.5 19 104.5s32.5 46.667 59.5 59s61.5 18.5 103.5 18.5h700c47.333 0 82.5 -10.5 105.5 -31.5s34.5 -48.5 34.5 -82.5c0 -34.667 -11.5 -62.5 -34.5 -83.5s-58.167 -31.5 -105.5 -31.5z" />
    <glyph glyph-name="G" unicode="G" horiz-adv-x="1622" 
d="M1499 596l-0.000976562 -281.002c0 -37.333 -3.66699 -67.166 -11 -89.499s-20.833 -42.5 -40.5 -60.5s-44.834 -35.333 -75.501 -52c-88.667 -48 -174 -83 -256 -105s-171.333 -33 -268 -33c-112.667 0 -215.334 17.333 -308.001 52s-171.667 85 -237 151
s-115.5 146 -150.5 240s-52.5 199 -52.5 315c0 114 17 218.333 51 313s84 175 150 241s146.333 116.5 241 151.5s202 52.5 322 52.5c98.667 0 186 -13.167 262 -39.5s137.667 -59.5 185 -99.5s83 -82.333 107 -127s36 -84.334 36 -119.001
c0 -37.333 -13.833 -69.166 -41.5 -95.499s-60.834 -39.5 -99.501 -39.5c-21.333 0 -41.833 5 -61.5 15s-36.167 24 -49.5 42c-36.667 57.333 -67.667 100.666 -93 129.999s-59.5 54 -102.5 74s-97.833 30 -164.5 30c-68.667 0 -130 -11.833 -184 -35.5
s-100.167 -58 -138.5 -103s-67.666 -100.167 -87.999 -165.5s-30.5 -137.666 -30.5 -216.999c0 -172 39.5 -304.333 118.5 -397s189.167 -139 330.5 -139c68.667 0 133.167 9 193.5 27s121.5 43.667 183.5 77v238h-230c-55.333 0 -97.166 8.33301 -125.499 25
s-42.5 45 -42.5 85c0 32.667 11.833 59.667 35.5 81s55.834 32 96.501 32h337c41.333 0 76.333 -3.66699 105 -11s51.834 -23.666 69.501 -48.999s26.5 -63.333 26.5 -114z" />
    <glyph glyph-name="H" unicode="H" horiz-adv-x="1556" 
d="M459 1311l0.000976562 -419.998h641v420c0 60 13.5 105 40.5 135s62.5 45 106.5 45c44.667 0 80.834 -14.833 108.501 -44.5s41.5 -74.834 41.5 -135.501v-1155c0 -60.667 -14 -106 -42 -136s-64 -45 -108 -45c-44.667 0 -80.334 15.167 -107.001 45.5
s-40 75.5 -40 135.5v493h-641v-493c0 -60.667 -14 -106 -42 -136s-64 -45 -108 -45c-44.667 0 -80.334 15.167 -107.001 45.5s-40 75.5 -40 135.5v1155c0 60 13.167 105 39.5 135s62.166 45 107.499 45c44.667 0 80.834 -14.833 108.501 -44.5s41.5 -74.834 41.5 -135.501z
" />
    <glyph glyph-name="I" unicode="I" horiz-adv-x="641" 
d="M172 156l0.00195312 1155c0 60 13.667 105 41 135s62.666 45 105.999 45c44.667 0 80.834 -14.833 108.501 -44.5s41.5 -74.834 41.5 -135.501v-1155c0 -60.667 -13.833 -106 -41.5 -136s-63.834 -45 -108.501 -45c-42.667 0 -77.834 15.167 -105.501 45.5
s-41.5 75.5 -41.5 135.5z" />
    <glyph glyph-name="J" unicode="J" horiz-adv-x="1174" 
d="M1012 1311v-768c0 -66.667 -2.83301 -123.334 -8.5 -170.001s-18.5 -94 -38.5 -142c-33.333 -80.667 -88.333 -143.5 -165 -188.5s-170 -67.5 -280 -67.5c-99.333 0 -182.166 15.667 -248.499 47s-119.833 82 -160.5 152c-21.333 37.333 -38.666 80.333 -51.999 129
s-20 95 -20 139c0 46.667 13 82.334 39 107.001s59.333 37 100 37c39.333 0 69 -11.333 89 -34s35.333 -58 46 -106c11.333 -51.333 22.666 -92.333 33.999 -123s30.333 -57 57 -79s64.667 -33 114 -33c131.333 0 197 96.333 197 289v811c0 60 13.167 105 39.5 135
s62.166 45 107.499 45c46 0 82.5 -15 109.5 -45s40.5 -75 40.5 -135z" />
    <glyph glyph-name="K" unicode="K" horiz-adv-x="1516" 
d="M459 1311l-0.00195312 -514.001l583 608c28 29.333 51.833 51 71.5 65s45.834 21 78.501 21c42.667 0 77.167 -12.5 103.5 -37.5s39.5 -55.5 39.5 -91.5c0 -43.333 -22.333 -86.333 -67 -129l-361 -342l416 -596c29.333 -41.333 51.333 -77.5 66 -108.5
s22 -61.167 22 -90.5c0 -32.667 -12.833 -61 -38.5 -85s-60.5 -36 -104.5 -36c-41.333 0 -75 8.83301 -101 26.5s-48 41.167 -66 70.5l-48 80l-351 540l-243 -233v-303c0 -61.333 -14 -106.833 -42 -136.5s-64 -44.5 -108 -44.5c-25.333 0 -49.666 6.66699 -72.999 20
s-41.333 31.333 -54 54c-9.33301 18.667 -15 40.334 -17 65.001s-3 60.334 -3 107.001v1090c0 60 13.167 105 39.5 135s62.166 45 107.499 45c44.667 0 80.834 -14.833 108.501 -44.5s41.5 -74.834 41.5 -135.501z" />
    <glyph glyph-name="L" unicode="L" horiz-adv-x="1237" 
d="M451 1311l-0.000976562 -1067h602c48 0 84.833 -11.667 110.5 -35s38.5 -52.666 38.5 -87.999c0 -36 -12.667 -65.167 -38 -87.5s-62.333 -33.5 -111 -33.5h-717c-64.667 0 -111.167 14.333 -139.5 43s-42.5 75 -42.5 139v1129c0 60 13.5 105 40.5 135s62.5 45 106.5 45
c44.667 0 80.834 -14.833 108.501 -44.5s41.5 -74.834 41.5 -135.501z" />
    <glyph glyph-name="M" unicode="M" horiz-adv-x="1706" 
d="M655 221l-235.001 933.999v-1012c0 -56 -12.5 -98 -37.5 -126s-58.167 -42 -99.5 -42c-40 0 -72.667 13.833 -98 41.5s-38 69.834 -38 126.501v1160c0 64 16.667 107.167 50 129.5s78.333 33.5 135 33.5h92c55.333 0 95.5 -5 120.5 -15s43.5 -28 55.5 -54
s25.667 -68.333 41 -127l213 -803l213 803c15.333 58.667 29 101 41 127s30.5 44 55.5 54s65.167 15 120.5 15h92c56.667 0 101.667 -11.167 135 -33.5s50 -65.5 50 -129.5v-1160c0 -56 -12.5 -98 -37.5 -126s-58.5 -42 -100.5 -42c-39.333 0 -71.666 14 -96.999 42
s-38 70 -38 126v1012l-235 -934c-15.333 -60.667 -27.833 -105.167 -37.5 -133.5s-27.5 -54.166 -53.5 -77.499s-62 -35 -108 -35c-34.667 0 -64 7.5 -88 22.5s-42.667 34.167 -56 57.5s-23.833 49.166 -31.5 77.499z" />
    <glyph glyph-name="N" unicode="N" horiz-adv-x="1556" 
d="M547 1313l571 -864v872c0 56.667 12.167 99.167 36.5 127.5s57.166 42.5 98.499 42.5c42.667 0 76.334 -14.167 101.001 -42.5s37 -70.833 37 -127.5v-1153c0 -128.667 -53.333 -193 -160 -193c-26.667 0 -50.667 3.83301 -72 11.5s-41.333 19.834 -60 36.501
s-36 36.167 -52 58.5l-48 68.5l-557 854v-859c0 -56 -13 -98.333 -39 -127s-59.333 -43 -100 -43c-42 0 -75.667 14.5 -101 43.5s-38 71.167 -38 126.5v1131c0 48 5.33301 85.667 16 113c12.667 30 33.667 54.5 63 73.5s61 28.5 95 28.5c26.667 0 49.5 -4.33301 68.5 -13
s35.667 -20.334 50 -35.001s29 -33.667 44 -57z" />
    <glyph glyph-name="O" unicode="O" horiz-adv-x="1622" 
d="M805 1491c152 0 282.501 -30.832 391.501 -92.499s191.5 -149.334 247.5 -263.001s84 -247.167 84 -400.5c0 -113.333 -15.333 -216.333 -46 -309s-76.667 -173 -138 -241s-136.666 -120 -225.999 -156s-191.666 -54 -306.999 -54
c-114.667 0 -217.334 18.5 -308.001 55.5s-166.334 89.167 -227.001 156.5s-106.5 148.333 -137.5 243s-46.5 197 -46.5 307c0 112.667 16.167 216 48.5 310s79.166 174 140.499 240s136 116.5 224 151.5s188 52.5 300 52.5zM1227 737.001
c0 107.333 -17.3369 200.331 -52.0039 278.998s-84.167 138.167 -148.5 178.5s-138.166 60.5 -221.499 60.5c-59.333 0 -114.166 -11.167 -164.499 -33.5s-93.666 -54.833 -129.999 -97.5s-65 -97.167 -86 -163.5s-31.5 -140.833 -31.5 -223.5
c0 -83.333 10.5 -158.666 31.5 -225.999s50.667 -123.166 89 -167.499s82.333 -77.5 132 -99.5s104.167 -33 163.5 -33c76 0 145.833 19 209.5 57s114.334 96.667 152.001 176s56.5 177 56.5 293z" />
    <glyph glyph-name="P" unicode="P" horiz-adv-x="1366" 
d="M729 571l-272.002 0.000976562v-415c0 -59.333 -14 -104.333 -42 -135s-63.333 -46 -106 -46c-44.667 0 -80.667 15.167 -108 45.5s-41 74.833 -41 133.5v1130c0 65.333 15 112 45 140s77.667 42 143 42h381c112.667 0 199.334 -8.66699 260.001 -26
c60 -16.667 111.833 -44.334 155.5 -83.001s76.834 -86 99.501 -142s34 -119 34 -189c0 -149.333 -46 -262.5 -138 -339.5s-229 -115.5 -411 -115.5zM656.998 1243l-199.999 -0.000976562v-448h200c70 0 128.5 7.33301 175.5 22s82.833 38.667 107.5 72s37 77 37 131
c0 64.667 -19 117.334 -57 158.001c-42.667 43.333 -130.334 65 -263.001 65z" />
    <glyph glyph-name="Q" unicode="Q" horiz-adv-x="1622" 
d="M1339 182c43.333 -29.333 90.668 -57.832 142.001 -85.499s85.333 -49.667 102 -66s25 -39.5 25 -69.5c0 -21.333 -9.83301 -42.666 -29.5 -63.999s-43.5 -32 -71.5 -32c-22.667 0 -50.167 7.33301 -82.5 22s-70.333 36 -114 64s-91.5 60.667 -143.5 98
c-96.667 -49.333 -215.334 -74 -356.001 -74c-114 0 -216.167 18.167 -306.5 54.5s-166.166 88.666 -227.499 156.999s-107.5 149.5 -138.5 243.5s-46.5 196.333 -46.5 307c0 112.667 16.167 216 48.5 310s79.166 174 140.499 240s136 116.5 224 151.5s188 52.5 300 52.5
c152 0 282.5 -30.833 391.5 -92.5s191.5 -149.334 247.5 -263.001s84 -247.167 84 -400.5c0 -232.667 -63 -417 -189 -553zM1106 344.001c41.333 47.333 71.8291 103.334 91.4961 168.001s29.5 139.667 29.5 225c0 107.333 -17.333 200.333 -52 279
s-84.167 138.167 -148.5 178.5s-138.166 60.5 -221.499 60.5c-59.333 0 -114.166 -11.167 -164.499 -33.5s-93.666 -54.833 -129.999 -97.5s-65 -97.167 -86 -163.5s-31.5 -140.833 -31.5 -223.5c0 -168.667 39.333 -298.5 118 -389.5s178 -136.5 298 -136.5
c49.333 0 100 10.333 152 31c-31.333 23.333 -70.5 46.666 -117.5 69.999s-79.167 41.333 -96.5 54s-26 30.667 -26 54c0 20 8.33301 37.667 25 53s35 23 55 23c60.667 0 162.334 -50.667 305.001 -152z" />
    <glyph glyph-name="R" unicode="R" horiz-adv-x="1473" 
d="M559 627l-103.997 0.000976562v-471c0 -62 -13.667 -107.667 -41 -137s-63 -44 -107 -44c-47.333 0 -84 15.333 -110 46s-39 75.667 -39 135v1128c0 64 14.333 110.333 43 139s75 43 139 43h483c66.667 0 123.667 -2.83301 171 -8.5s90 -17.167 128 -34.5
c46 -19.333 86.667 -47 122 -83s62.166 -77.833 80.499 -125.5s27.5 -98.167 27.5 -151.5c0 -109.333 -30.833 -196.666 -92.5 -261.999s-155.167 -111.666 -280.5 -138.999c52.667 -28 103 -69.333 151 -124s90.833 -112.834 128.5 -174.501s67 -117.334 88 -167.001
s31.5 -83.834 31.5 -102.501c0 -19.333 -6.16699 -38.5 -18.5 -57.5s-29.166 -34 -50.499 -45s-46 -16.5 -74 -16.5c-33.333 0 -61.333 7.83301 -84 23.5s-42.167 35.5 -58.5 59.5s-38.5 59.333 -66.5 106l-119 198c-42.667 72.667 -80.834 128 -114.501 166
s-67.834 64 -102.501 78s-78.334 21 -131.001 21zM729.003 1243h-274v-403h266c71.333 0 131.333 6.16699 180 18.5s85.834 33.333 111.501 63s38.5 70.5 38.5 122.5c0 40.667 -10.333 76.5 -31 107.5s-49.334 54.167 -86.001 69.5c-34.667 14.667 -103 22 -205 22z" />
    <glyph glyph-name="S" unicode="S" horiz-adv-x="1366" 
d="M1274 440c0 -88.667 -22.832 -168.339 -68.499 -239.006s-112.5 -126 -200.5 -166s-192.333 -60 -313 -60c-144.667 0 -264 27.333 -358 82c-66.667 39.333 -120.834 91.833 -162.501 157.5s-62.5 129.5 -62.5 191.5c0 36 12.5 66.833 37.5 92.5s56.833 38.5 95.5 38.5
c31.333 0 57.833 -10 79.5 -30s40.167 -49.667 55.5 -89c18.667 -46.667 38.834 -85.667 60.501 -117s52.167 -57.166 91.5 -77.499s91 -30.5 155 -30.5c88 0 159.5 20.5 214.5 61.5s82.5 92.167 82.5 153.5c0 48.667 -14.833 88.167 -44.5 118.5s-68 53.5 -115 69.5
s-109.833 33 -188.5 51c-105.333 24.667 -193.5 53.5 -264.5 86.5s-127.333 78 -169 135s-62.5 127.833 -62.5 212.5c0 80.667 22 152.334 66 215.001s107.667 110.834 191 144.501s181.333 50.5 294 50.5c90 0 167.833 -11.167 233.5 -33.5s120.167 -52 163.5 -89
s75 -75.833 95 -116.5s30 -80.334 30 -119.001c0 -35.333 -12.5 -67.166 -37.5 -95.499s-56.167 -42.5 -93.5 -42.5c-34 0 -59.833 8.5 -77.5 25.5s-36.834 44.833 -57.501 83.5c-26.667 55.333 -58.667 98.5 -96 129.5s-97.333 46.5 -180 46.5
c-76.667 0 -138.5 -16.833 -185.5 -50.5s-70.5 -74.167 -70.5 -121.5c0 -29.333 8 -54.666 24 -75.999s38 -39.666 66 -54.999s56.333 -27.333 85 -36s76 -21.334 142 -38.001c82.667 -19.333 157.5 -40.666 224.5 -63.999s124 -51.666 171 -84.999s83.667 -75.5 110 -126.5
s39.5 -113.5 39.5 -187.5z" />
    <glyph glyph-name="T" unicode="T" horiz-adv-x="1280" 
d="M1112 1221l-324.001 0.000976562v-1065c0 -61.333 -13.667 -106.833 -41 -136.5s-62.666 -44.5 -105.999 -44.5c-44 0 -79.833 15 -107.5 45s-41.5 75.333 -41.5 136v1065h-324c-50.667 0 -88.334 11.167 -113.001 33.5s-37 51.833 -37 88.5c0 38 12.833 68 38.5 90
s62.834 33 111.501 33h944c51.333 0 89.5 -11.333 114.5 -34s37.5 -52.334 37.5 -89.001s-12.667 -66.167 -38 -88.5s-63.333 -33.5 -114 -33.5z" />
    <glyph glyph-name="U" unicode="U" horiz-adv-x="1556" 
d="M162 606l-0.00195312 705c0 60 13.5 105 40.5 135s62.5 45 106.5 45c46 0 82.5 -15 109.5 -45s40.5 -75 40.5 -135v-721c0 -82 9.16699 -150.5 27.5 -205.5s50.833 -97.667 97.5 -128s112 -45.5 196 -45.5c116 0 198 30.833 246 92.5s72 155.167 72 280.5v727
c0 60.667 13.333 105.834 40 135.501s62.334 44.5 107.001 44.5s80.834 -14.833 108.501 -44.5s41.5 -74.834 41.5 -135.501v-705c0 -114.667 -11.167 -210.334 -33.5 -287.001s-64.5 -144 -126.5 -202c-53.333 -49.333 -115.333 -85.333 -186 -108
s-153.334 -34 -248.001 -34c-112.667 0 -209.667 12.167 -291 36.5s-147.666 62 -198.999 113s-89 116.333 -113 196s-36 174.834 -36 285.501z" />
    <glyph glyph-name="V" unicode="V" horiz-adv-x="1409" 
d="M377 1296l332.004 -983.001l333 990c17.333 52 30.333 88.167 39 108.5s23 38.666 43 54.999s47.333 24.5 82 24.5c25.333 0 48.833 -6.33301 70.5 -19s38.667 -29.5 51 -50.5s18.5 -42.167 18.5 -63.5c0 -14.667 -2 -30.5 -6 -47.5s-9 -33.667 -15 -50l-18 -50.5
l-355 -958c-12.667 -36.667 -25.334 -71.5 -38.001 -104.5s-27.334 -62 -44.001 -87s-38.834 -45.5 -66.501 -61.5s-61.5 -24 -101.5 -24s-73.833 7.83301 -101.5 23.5s-50 36.334 -67 62.001s-31.833 54.834 -44.5 87.501s-25.334 67.334 -38.001 104.001l-349 950
l-18.5 51c-6.33301 16.667 -11.666 34.667 -15.999 54s-6.5 35.666 -6.5 48.999c0 34 13.667 65 41 93s61.666 42 102.999 42c50.667 0 86.5 -15.5 107.5 -46.5s42.5 -80.5 64.5 -148.5z" />
    <glyph glyph-name="W" unicode="W" horiz-adv-x="1921" 
d="M1198 231l-237 879.001l-240 -879c-18.667 -66.667 -33.5 -114.5 -44.5 -143.5s-30.167 -55 -57.5 -78s-63.666 -34.5 -108.999 -34.5c-36.667 0 -66.834 6.83301 -90.501 20.5s-42.834 33 -57.501 58s-26.667 54.667 -36 89l-25 95.5l-244 987
c-14.667 57.333 -22 101 -22 131c0 38 13.333 70 40 96s59.667 39 99 39c54 0 90.333 -17.333 109 -52s35 -85 49 -151l192 -856l215 801c16 61.333 30.333 108 43 140s33.334 59.667 62.001 83s67.667 35 117 35c50 0 88.833 -12.167 116.5 -36.5
s46.834 -50.833 57.501 -79.5s25 -76 43 -142l217 -801l192 856c9.33301 44.667 18.166 79.667 26.499 105s22.666 48 42.999 68s49.833 30 88.5 30s71.5 -12.833 98.5 -38.5s40.5 -57.834 40.5 -96.501c0 -27.333 -7.33301 -71 -22 -131l-244 -987
c-16.667 -66.667 -30.5 -115.5 -41.5 -146.5s-29.667 -58.167 -56 -81.5s-63.5 -35 -111.5 -35c-45.333 0 -81.666 11.333 -108.999 34s-46.333 48.167 -57 76.5s-25.667 76.833 -45 145.5z" />
    <glyph glyph-name="X" unicode="X" horiz-adv-x="1237" 
d="M106 285l327.996 479.001l-276 426c-26 41.333 -45.5 76.833 -58.5 106.5s-19.5 58.167 -19.5 85.5c0 28 12.5 53.167 37.5 75.5s55.5 33.5 91.5 33.5c41.333 0 73.5 -12.167 96.5 -36.5s54.833 -69.5 95.5 -135.5l220 -356l235 356l49.5 77
c13.667 21.333 26.834 39 39.501 53s26.834 24.5 42.501 31.5s33.834 10.5 54.501 10.5c37.333 0 67.833 -11.167 91.5 -33.5s35.5 -48.833 35.5 -79.5c0 -44.667 -25.667 -105.334 -77 -182.001l-289 -432l311 -479c28 -42 48.333 -76.833 61 -104.5s19 -53.834 19 -78.501
c0 -23.333 -5.66699 -44.666 -17 -63.999s-27.333 -34.666 -48 -45.999s-44 -17 -70 -17c-28 0 -51.667 5.83301 -71 17.5s-35 26.167 -47 43.5l-67 101l-258 406l-274 -418l-45.5 -70c-9 -13.333 -19.833 -26.333 -32.5 -39s-27.667 -22.667 -45 -30
s-37.666 -11 -60.999 -11c-36 0 -65.833 11 -89.5 33s-35.5 54 -35.5 96c0 49.333 24.333 109.666 73 180.999z" />
    <glyph glyph-name="Y" unicode="Y" horiz-adv-x="1280" 
d="M487 156v465l-358 555c-31.333 50 -53.5 89 -66.5 117s-19.5 52.333 -19.5 73c0 34 13.167 63.333 39.5 88s58.833 37 97.5 37c40.667 0 71.5 -11.5 92.5 -34.5s52.5 -68.833 94.5 -137.5l274 -445l277 445l42 69c11.333 18.667 23.833 36.167 37.5 52.5
s28.834 28.833 45.501 37.5s37 13 61 13c37.333 0 68.5 -12.167 93.5 -36.5s37.5 -52.5 37.5 -84.5c0 -26 -6.33301 -52 -19 -78s-34.334 -62 -65.001 -108l-367 -563v-465c0 -60.667 -14 -106 -42 -136s-63.667 -45 -107 -45c-44 0 -79.667 14.833 -107 44.5
s-41 75.167 -41 136.5z" />
    <glyph glyph-name="Z" unicode="Z" horiz-adv-x="1323" 
d="M121 342l753.001 901h-647c-45.333 0 -79.5 10 -102.5 30s-34.5 46.333 -34.5 79c0 34 11.5 61.5 34.5 82.5s57.167 31.5 102.5 31.5h834c108 0 162 -50.333 162 -151c0 -48 -9 -86.333 -27 -115s-54.333 -75 -109 -139l-704 -838h776c46 0 80.333 -9.5 103 -28.5
s34 -45.5 34 -79.5c0 -35.333 -11.333 -63.333 -34 -84s-57 -31 -103 -31h-952c-64.667 0 -113.334 14.5 -146.001 43.5s-49 67.833 -49 116.5c0 16.667 2.66699 32 8 46s12.5 27.167 21.5 39.5s21.5 28 37.5 47z" />
    <glyph glyph-name="bracketleft" unicode="[" horiz-adv-x="725" 
d="M573 1278h-167v-1450h167c86 0 129 -35.667 129 -107c0 -70.667 -43 -106 -129 -106h-249c-40.667 0 -74.167 6.66699 -100.5 20s-45.666 33.5 -57.999 60.5s-18.5 60.833 -18.5 101.5v1512c0 62.667 14 108.667 42 138s73 44 135 44h249
c43.333 0 75.666 -9.66699 96.999 -29s32 -45.333 32 -78c0 -70.667 -43 -106 -129 -106z" />
    <glyph glyph-name="backslash" unicode="\" horiz-adv-x="575" 
d="M248 1331l279.998 -1153c14 -54.667 21 -93 21 -115c0 -58.667 -34.333 -88 -103 -88c-28 0 -49.167 6.16699 -63.5 18.5s-24.5 27.333 -30.5 45s-14.667 49.834 -26 96.501l-279 1153c-13.333 57.333 -20 95 -20 113c0 28 8.83301 50 26.5 66s42.834 24 75.501 24
c39.333 0 65.333 -11.333 78 -34s26.334 -64.667 41.001 -126z" />
    <glyph glyph-name="bracketright" unicode="]" horiz-adv-x="725" 
d="M319 -172l0.000976562 1450h-165c-42.667 0 -75.167 9.83301 -97.5 29.5s-33.5 45.167 -33.5 76.5c0 32 11.167 57.833 33.5 77.5s54.833 29.5 97.5 29.5h247c61.333 0 106.166 -14.667 134.499 -44s42.5 -75.333 42.5 -138v-1512c0 -62 -14 -107.833 -42 -137.5
s-73 -44.5 -135 -44.5h-247c-42.667 0 -75.167 9.83301 -97.5 29.5s-33.5 45.167 -33.5 76.5c0 32 11.167 57.833 33.5 77.5s54.833 29.5 97.5 29.5h165z" />
    <glyph glyph-name="asciicircum" unicode="^" horiz-adv-x="1194" 
d="M401 692h-286l377 799h221l366 -799h-282l-199 490z" />
    <glyph glyph-name="underscore" unicode="_" horiz-adv-x="1024" 
d="M-12 -256v102h1048v-102h-1048z" />
    <glyph glyph-name="grave" unicode="`" horiz-adv-x="682" 
d="M424 1364l45 -83.999c18 -28.667 27 -48.334 27 -59.001c0 -16.667 -14.333 -25 -43 -25c-44 0 -85 9.66699 -123 29c-18.667 9.33301 -64.667 49 -138 119s-110 109.333 -110 118c0 10 17 15 51 15h135c39.333 0 69 -7 89 -21s42.333 -44.667 67 -92z" />
    <glyph glyph-name="a" unicode="a" 
d="M831 129c-66 -51.333 -129.832 -89.835 -191.499 -115.502s-130.834 -38.5 -207.501 -38.5c-70 0 -131.5 13.833 -184.5 41.5s-93.833 65.167 -122.5 112.5s-43 98.666 -43 153.999c0 74.667 23.667 138.334 71 191.001s112.333 88 195 106c17.333 4 60.333 13 129 27
s127.5 26.833 176.5 38.5s102.167 25.834 159.5 42.501c-3.33301 72 -17.833 124.833 -43.5 158.5s-78.834 50.5 -159.501 50.5c-69.333 0 -121.5 -9.66699 -156.5 -29s-65 -48.333 -90 -87s-42.667 -64.167 -53 -76.5s-32.5 -18.5 -66.5 -18.5
c-30.667 0 -57.167 9.83301 -79.5 29.5s-33.5 44.834 -33.5 75.501c0 48 17 94.667 51 140s87 82.666 159 111.999s161.667 44 269 44c120 0 214.333 -14.167 283 -42.5s117.167 -73.166 145.5 -134.499s42.5 -142.666 42.5 -243.999c0 -64 -0.166992 -118.333 -0.5 -163
s-0.833008 -94.334 -1.5 -149.001c0 -51.333 8.5 -104.833 25.5 -160.5s25.5 -91.5 25.5 -107.5c0 -28 -13.167 -53.5 -39.5 -76.5s-56.166 -34.5 -89.499 -34.5c-28 0 -55.667 13.167 -83 39.5s-56.333 64.5 -87 114.5zM813.001 523.998
c-40 -14.667 -98.168 -30.167 -174.501 -46.5s-129.166 -28.333 -158.499 -36s-57.333 -22.667 -84 -45s-40 -53.5 -40 -93.5c0 -41.333 15.667 -76.5 47 -105.5s72.333 -43.5 123 -43.5c54 0 103.833 11.833 149.5 35.5s79.167 54.167 100.5 91.5
c24.667 41.333 37 109.333 37 204v39z" />
    <glyph glyph-name="b" unicode="b" horiz-adv-x="1280" 
d="M393 1335l0.000976562 -416.996c51.333 53.333 103.666 94.166 156.999 122.499s119.333 42.5 198 42.5c90.667 0 170.167 -21.5 238.5 -64.5s121.333 -105.333 159 -187s56.5 -178.5 56.5 -290.5c0 -82.667 -10.5 -158.5 -31.5 -227.5s-51.5 -128.833 -91.5 -179.5
s-88.5 -89.834 -145.5 -117.501s-119.833 -41.5 -188.5 -41.5c-42 0 -81.5 5 -118.5 15s-68.5 23.167 -94.5 39.5s-48.167 33.166 -66.5 50.499s-42.5 43.333 -72.5 78v-27c0 -51.333 -12.333 -90.166 -37 -116.499s-56 -39.5 -94 -39.5c-38.667 0 -69.5 13.167 -92.5 39.5
s-34.5 65.166 -34.5 116.499v1192c0 55.333 11.167 97.166 33.5 125.499s53.5 42.5 93.5 42.5c42 0 74.333 -13.5 97 -40.5s34 -65.5 34 -115.5zM406.001 524.004c0 -108.667 24.8311 -192.167 74.498 -250.5s114.834 -87.5 195.501 -87.5
c68.667 0 127.834 29.833 177.501 89.5s74.5 145.167 74.5 256.5c0 72 -10.333 134 -31 186s-50 92.167 -88 120.5s-82.333 42.5 -133 42.5c-52 0 -98.333 -14.167 -139 -42.5s-72.667 -69.333 -96 -123s-35 -117.5 -35 -191.5z" />
    <glyph glyph-name="c" unicode="c" 
d="M1120 313c0 -34 -10.168 -70.3301 -30.501 -108.997s-51.333 -75.5 -93 -110.5s-94.167 -63.167 -157.5 -84.5s-134.666 -32 -213.999 -32c-168.667 0 -300.334 49.167 -395.001 147.5s-142 230.166 -142 395.499c0 112 21.667 211 65 297s106 152.5 188 199.5
s180 70.5 294 70.5c70.667 0 135.5 -10.333 194.5 -31s109 -47.334 150 -80.001s72.333 -67.5 94 -104.5s32.5 -71.5 32.5 -103.5c0 -32.667 -12.167 -60.334 -36.5 -83.001s-53.833 -34 -88.5 -34c-22.667 0 -41.5 5.83301 -56.5 17.5s-31.833 30.5 -50.5 56.5
c-33.333 50.667 -68.166 88.667 -104.499 114s-82.5 38 -138.5 38c-80.667 0 -145.667 -31.5 -195 -94.5s-74 -149.167 -74 -258.5c0 -51.333 6.33301 -98.5 19 -141.5s31 -79.667 55 -110s53 -53.333 87 -69s71.333 -23.5 112 -23.5c54.667 0 101.5 12.667 140.5 38
s73.5 64 103.5 116c16.667 30.667 34.667 54.667 54 72s43 26 71 26c33.333 0 61 -12.667 83 -38s33 -52.333 33 -81z" />
    <glyph glyph-name="d" unicode="d" horiz-adv-x="1280" 
d="M889 131l0.00390625 27c-36.667 -42 -72.834 -76.167 -108.501 -102.5s-74.334 -46.333 -116.001 -60s-87.167 -20.5 -136.5 -20.5c-65.333 0 -125.833 13.833 -181.5 41.5s-103.834 67.167 -144.501 118.5s-71.5 111.666 -92.5 180.999s-31.5 144.333 -31.5 225
c0 170.667 41.667 303.667 125 399s193 143 329 143c78.667 0 145 -13.5 199 -40.5s106.667 -68.5 158 -124.5v403c0 56 11.167 98.333 33.5 127s54.166 43 95.499 43s73.166 -13.167 95.499 -39.5s33.5 -65.166 33.5 -116.499v-1204c0 -52 -12 -91 -36 -117
s-55 -39 -93 -39c-37.333 0 -68.166 13.5 -92.499 40.5s-36.5 65.5 -36.5 115.5zM352.004 532c0 -74 11.499 -137 34.499 -189s54.5 -91.167 94.5 -117.5s83.667 -39.5 131 -39.5c48 0 91.833 12.5 131.5 37.5s71.334 63.333 95.001 115s35.5 116.167 35.5 193.5
c0 72.667 -11.833 135.167 -35.5 187.5s-55.667 92.333 -96 120s-84.5 41.5 -132.5 41.5c-50 0 -94.667 -14.167 -134 -42.5s-69.833 -69 -91.5 -122s-32.5 -114.5 -32.5 -184.5z" />
    <glyph glyph-name="e" unicode="e" 
d="M903 463l-534 0.000976562c0.666992 -62 13.167 -116.667 37.5 -164s56.666 -83 96.999 -107s84.833 -36 133.5 -36c32.667 0 62.5 3.83301 89.5 11.5s53.167 19.667 78.5 36s48.666 33.833 69.999 52.5l83 76c14 12 34 18 60 18c28 0 50.667 -7.66699 68 -23
s26 -37 26 -65c0 -24.667 -9.66699 -53.5 -29 -86.5s-48.5 -64.667 -87.5 -95s-88 -55.5 -147 -75.5s-126.833 -30 -203.5 -30c-175.333 0 -311.666 50 -408.999 150s-146 235.667 -146 407c0 80.667 12 155.5 36 224.5s59 128.167 105 177.5s102.667 87.166 170 113.499
s142 39.5 224 39.5c106.667 0 198.167 -22.5 274.5 -67.5s133.5 -103.167 171.5 -174.5s57 -144 57 -218c0 -68.667 -19.667 -113.167 -59 -133.5s-94.666 -30.5 -165.999 -30.5zM369 618.001l495.001 0.000976562c-6.66699 93.333 -31.834 163.166 -75.501 209.499
s-101.167 69.5 -172.5 69.5c-68 0 -123.833 -23.5 -167.5 -70.5s-70.167 -116.5 -79.5 -208.5z" />
    <glyph glyph-name="f" unicode="f" horiz-adv-x="682" 
d="M119 1061l65.0029 0.00195312v82c0 85.333 10.833 153.166 32.5 203.499s58.334 87 110.001 110s122.5 34.5 212.5 34.5c159.333 0 239 -39 239 -117c0 -25.333 -8.33301 -47 -25 -65s-36.334 -27 -59.001 -27c-10.667 0 -29 2 -55 6s-48 6 -66 6
c-49.333 0 -81 -14.5 -95 -43.5s-21 -70.5 -21 -124.5v-65h67c104 0 156 -31.333 156 -94c0 -44.667 -13.833 -73 -41.5 -85s-65.834 -18 -114.501 -18h-67v-723c0 -54 -12.833 -95.167 -38.5 -123.5s-58.834 -42.5 -99.501 -42.5c-38.667 0 -70.834 14.167 -96.501 42.5
s-38.5 69.5 -38.5 123.5v723h-75c-40.667 0 -72 9.16699 -94 27.5s-33 42.166 -33 71.499c0 65.333 45.667 98 137 98z" />
    <glyph glyph-name="g" unicode="g" horiz-adv-x="1280" 
d="M1145 885l-0.00292969 -792.996c0 -90.667 -9.66699 -168.667 -29 -234s-50.333 -119.333 -93 -162s-98.5 -74.334 -167.5 -95.001s-154.833 -31 -257.5 -31c-94 0 -178 13.167 -252 39.5s-131 60.333 -171 102s-60 84.5 -60 128.5c0 33.333 11.333 60.5 34 81.5
s50 31.5 82 31.5c40 0 75 -17.667 105 -53l45.5 -54.5c15.667 -18.333 33 -34 52 -47s41.833 -22.667 68.5 -29s57.334 -9.5 92.001 -9.5c70.667 0 125.5 9.83301 164.5 29.5s66.333 47.167 82 82.5s24.834 73.166 27.501 113.499s4.66699 105.166 6 194.499
c-42 -58.667 -90.5 -103.334 -145.5 -134.001s-120.5 -46 -196.5 -46c-91.333 -0 -171.166 23.333 -239.499 70s-120.833 112 -157.5 196s-55 181 -55 291c0 82 11.167 156 33.5 222s54.166 121.667 95.499 167s89 79.5 143 102.5s113.333 34.5 178 34.5
c77.333 0 144.333 -14.833 201 -44.5s109.334 -76.167 158.001 -139.5v37c0 47.333 11.667 84 35 110s53.333 39 90 39c52.667 0 87.667 -17.167 105 -51.5s26 -83.833 26 -148.5zM353.997 539.004c0 -110.667 24.1689 -194.334 72.502 -251.001s110.833 -85 187.5 -85
c45.333 0 88.166 12.167 128.499 36.5s73.166 61 98.499 110s38 108.5 38 178.5c0 111.333 -24.5 198 -73.5 260s-113.5 93 -193.5 93c-78 0 -140.5 -29.667 -187.5 -89s-70.5 -143.666 -70.5 -252.999z" />
    <glyph glyph-name="h" unicode="h" horiz-adv-x="1237" 
d="M408 1325l-0.00195312 -405c34.667 40 68.5 71.667 101.5 95s69.5 40.833 109.5 52.5s83 17.5 129 17.5c69.333 0 130.833 -14.667 184.5 -44s95.834 -72 126.501 -128c19.333 -32.667 32.333 -69.167 39 -109.5s10 -86.833 10 -139.5v-523
c0 -54.667 -12.5 -96 -37.5 -124s-58.167 -42 -99.5 -42c-90 0 -135 55.333 -135 166v461c0 87.333 -13 154.5 -39 201.5s-75.333 70.5 -148 70.5c-48.667 0 -92.5 -13.833 -131.5 -41.5s-68.167 -65.5 -87.5 -113.5c-14.667 -40.667 -22 -113 -22 -217v-361
c0 -54 -12.167 -95.167 -36.5 -123.5s-58.166 -42.5 -101.499 -42.5c-90 0 -135 55.333 -135 166v1184c0 55.333 11.833 96.833 35.5 124.5s56.834 41.5 99.501 41.5c43.333 0 77.166 -14 101.499 -42s36.5 -69.333 36.5 -124z" />
    <glyph glyph-name="i" unicode="i" horiz-adv-x="555" 
d="M414 930v-789c0 -54.667 -13 -96 -39 -124s-59 -42 -99 -42s-72.5 14.333 -97.5 43s-37.5 69.667 -37.5 123v781c0 54 12.5 94.667 37.5 122s57.5 41 97.5 41s73 -13.667 99 -41s39 -65.333 39 -114zM279 1212c-38 0 -70.499 11.667 -97.499 35s-40.5 56.333 -40.5 99
c0 38.667 13.833 70.5 41.5 95.5s59.834 37.5 96.501 37.5c35.333 0 66.666 -11.333 93.999 -34s41 -55.667 41 -99c0 -42 -13.333 -74.833 -40 -98.5s-58.334 -35.5 -95.001 -35.5z" />
    <glyph glyph-name="j" unicode="j" horiz-adv-x="555" 
d="M416 922l0.000976562 -925.999c0 -66 -2.16699 -119.833 -6.5 -161.5s-10.5 -71.834 -18.5 -90.501c-45.333 -116 -141.666 -174 -288.999 -174c-82.667 0 -145.334 11.333 -188.001 34s-64 55.667 -64 99c0 32 9.66699 58.167 29 78.5s44.666 30.5 75.999 30.5
c4 0 10.5 -0.5 19.5 -1.5s22.333 -2.16699 40 -3.5s29.834 -2 36.501 -2c36.667 0 61.167 14.333 73.5 43s18.5 80 18.5 154v920c0 54 12.667 94.667 38 122s58.666 41 99.999 41c40 0 72.5 -13.5 97.5 -40.5s37.5 -67.833 37.5 -122.5zM281.001 1212
c-38 0 -70.499 11.667 -97.499 35s-40.5 56.333 -40.5 99c0 38.667 13.833 70.5 41.5 95.5s59.834 37.5 96.501 37.5c35.333 0 66.666 -11.333 93.999 -34s41 -55.667 41 -99c0 -42 -13.333 -74.833 -40 -98.5s-58.334 -35.5 -95.001 -35.5z" />
    <glyph glyph-name="k" unicode="k" horiz-adv-x="1174" 
d="M821 100l-240.998 396l-148 -140v-217c0 -52.667 -13.833 -93.167 -41.5 -121.5s-59.5 -42.5 -95.5 -42.5c-42 0 -75 14 -99 42s-36 69.333 -36 124v1164c0 60.667 11.667 106.834 35 138.501s56.666 47.5 99.999 47.5c42 0 75.333 -14.333 100 -43s37 -71 37 -127v-662
l307 322c38 40 67 67.333 87 82s44.333 22 73 22c34 0 62.333 -10.833 85 -32.5s34 -48.834 34 -81.501c0 -40 -37 -93.333 -111 -160l-145 -133l280 -440c20.667 -32.667 35.5 -57.5 44.5 -74.5s13.5 -33.167 13.5 -48.5c0 -43.333 -11.833 -77.5 -35.5 -102.5
s-54.834 -37.5 -93.501 -37.5c-33.333 0 -59 9 -77 27s-42.333 50.667 -73 98z" />
    <glyph glyph-name="l" unicode="l" horiz-adv-x="555" 
d="M141 141l0.00292969 1184c0 54.667 12.167 96 36.5 124s57.166 42 98.499 42s74.666 -13.833 99.999 -41.5s38 -69.167 38 -124.5v-1184c0 -55.333 -12.833 -96.833 -38.5 -124.5s-58.834 -41.5 -99.501 -41.5c-40 0 -72.5 14.333 -97.5 43s-37.5 69.667 -37.5 123z" />
    <glyph glyph-name="m" unicode="m" horiz-adv-x="1812" 
d="M1049 510l-0.00195312 -363.002c0 -57.333 -13 -100.333 -39 -129s-60.333 -43 -103 -43c-41.333 0 -74.833 14.333 -100.5 43s-38.5 71.667 -38.5 129v435c0 68.667 -2.33301 122 -7 160s-17.334 69.167 -38.001 93.5s-53.334 36.5 -98.001 36.5
c-89.333 0 -148.166 -30.667 -176.499 -92s-42.5 -149.333 -42.5 -264v-369c0 -56.667 -12.833 -99.5 -38.5 -128.5s-59.5 -43.5 -101.5 -43.5c-41.333 0 -75.166 14.5 -101.499 43.5s-39.5 71.833 -39.5 128.5v781c0 51.333 11.833 90.333 35.5 117s54.834 40 93.501 40
c37.333 0 68.5 -12.5 93.5 -37.5s37.5 -59.5 37.5 -103.5v-26c47.333 56.667 98 98.334 152 125.001s114 40 180 40c68.667 0 127.667 -13.667 177 -41s90 -68.666 122 -123.999c46 56 95.333 97.5 148 124.5s111 40.5 175 40.5c74.667 0 139 -14.667 193 -44
s94.333 -71.333 121 -126c23.333 -49.333 35 -127 35 -233v-533c0 -57.333 -13 -100.333 -39 -129s-60.333 -43 -103 -43c-41.333 0 -75.166 14.5 -101.499 43.5s-39.5 71.833 -39.5 128.5v459c0 58.667 -2.5 105.667 -7.5 141s-18.5 65 -40.5 89s-55.333 36 -100 36
c-36 0 -70.167 -10.667 -102.5 -32s-57.5 -50 -75.5 -86c-20 -46 -30 -127.333 -30 -244z" />
    <glyph glyph-name="n" unicode="n" horiz-adv-x="1237" 
d="M389 934v-33c48 63.333 100.5 109.833 157.5 139.5s122.5 44.5 196.5 44.5c72 0 136.333 -15.667 193 -47s99 -75.666 127 -132.999c18 -33.333 29.667 -69.333 35 -108s8 -88 8 -148v-508c0 -54.667 -12.5 -96 -37.5 -124s-57.5 -42 -97.5 -42
c-40.667 0 -73.667 14.333 -99 43s-38 69.667 -38 123v455c0 90 -12.5 158.833 -37.5 206.5s-74.833 71.5 -149.5 71.5c-48.667 0 -93 -14.5 -133 -43.5s-69.333 -68.833 -88 -119.5c-13.333 -40.667 -20 -116.667 -20 -228v-342c0 -55.333 -12.833 -96.833 -38.5 -124.5
s-58.834 -41.5 -99.501 -41.5c-39.333 0 -71.666 14.333 -96.999 43s-38 69.667 -38 123v789c0 52 11.333 90.833 34 116.5s53.667 38.5 93 38.5c24 0 45.667 -5.66699 65 -17s34.833 -28.333 46.5 -51s17.5 -50.334 17.5 -83.001z" />
    <glyph glyph-name="o" unicode="o" horiz-adv-x="1237" 
d="M1163 530c0 -81.333 -12.6641 -156.338 -37.9971 -225.005s-62 -127.667 -110 -177s-105.333 -87.166 -172 -113.499s-141.667 -39.5 -225 -39.5c-82.667 0 -157 13.333 -223 40s-123.167 64.834 -171.5 114.501s-85 108.334 -110 176.001s-37.5 142.5 -37.5 224.5
c0 82.667 12.667 158.334 38 227.001s61.666 127.334 108.999 176.001s104.666 86.167 171.999 112.5s141.666 39.5 222.999 39.5c82.667 0 157.667 -13.333 225 -40s125 -64.667 173 -114s84.5 -108 109.5 -176s37.5 -143 37.5 -225zM889.003 529.995
c0 111.333 -24.5 197.998 -73.5 259.998s-114.833 93 -197.5 93c-53.333 0 -100.333 -13.833 -141 -41.5s-72 -68.5 -94 -122.5s-33 -117 -33 -189c0 -71.333 10.833 -133.666 32.5 -186.999s52.667 -94.166 93 -122.499s87.833 -42.5 142.5 -42.5
c82.667 0 148.5 31.167 197.5 93.5s73.5 148.5 73.5 258.5z" />
    <glyph glyph-name="p" unicode="p" horiz-adv-x="1280" 
d="M393 932v-33.001c51.333 63.333 104.666 109.833 159.999 139.5s118 44.5 188 44.5c84 0 161.333 -21.667 232 -65s126.5 -106.666 167.5 -189.999s61.5 -182 61.5 -296c0 -84 -11.833 -161.167 -35.5 -231.5s-56.167 -129.333 -97.5 -177
s-90.166 -84.334 -146.499 -110.001s-116.833 -38.5 -181.5 -38.5c-78 0 -143.5 15.667 -196.5 47s-103.5 77.333 -151.5 138v-410c0 -120 -43.667 -180 -131 -180c-51.333 0 -85.333 15.5 -102 46.5s-25 76.167 -25 135.5v1178c0 52 11.333 90.833 34 116.5
s53.667 38.5 93 38.5c38.667 0 70.167 -13.167 94.5 -39.5s36.5 -64.166 36.5 -113.499zM928 534.999c0 72 -11 133.83 -33 185.497s-52.5 91.334 -91.5 119.001s-82.167 41.5 -129.5 41.5c-75.333 0 -138.833 -29.667 -190.5 -89s-77.5 -146.666 -77.5 -261.999
c0 -108.667 25.667 -193.167 77 -253.5s115 -90.5 191 -90.5c45.333 0 87.333 13.167 126 39.5s69.667 65.833 93 118.5s35 116.334 35 191.001z" />
    <glyph glyph-name="q" unicode="q" horiz-adv-x="1280" 
d="M889 -248l0.000976562 385.001c-52.667 -52.667 -107.5 -92.834 -164.5 -120.501s-120.167 -41.5 -189.5 -41.5c-84.667 0 -161.834 22.333 -231.501 67s-124.334 108.834 -164.001 192.501s-59.5 182.167 -59.5 295.5c0 116 20 215.5 60 298.5s95.5 146.167 166.5 189.5
s149.833 65 236.5 65c73.333 0 139 -15.167 197 -45.5s107.667 -76.5 149 -138.5v33c0 50 12 88 36 114s55 39 93 39s69 -12.833 93 -38.5s36 -63.834 36 -114.501v-1180c0 -121.333 -43 -182 -129 -182c-53.333 0 -88.166 16.333 -104.499 49s-24.5 77 -24.5 133z
M354.001 532.001c0 -73.333 11.8291 -136.501 35.4961 -189.501s54.834 -92.333 93.501 -118s80.334 -38.5 125.001 -38.5c48.667 0 93.334 12.833 134.001 38.5s73.334 64.834 98.001 117.501s37 117.667 37 195c0 54.667 -7.16699 104 -21.5 148s-33.833 80.5 -58.5 109.5
s-53 50.667 -85 65s-66 21.5 -102 21.5c-73.333 0 -134.333 -30.333 -183 -91s-73 -146.667 -73 -258z" />
    <glyph glyph-name="r" unicode="r" horiz-adv-x="897" 
d="M412 369l-0.000976562 -228c0 -55.333 -13 -96.833 -39 -124.5s-59 -41.5 -99 -41.5c-39.333 0 -71.666 14 -96.999 42s-38 69.333 -38 124v760c0 122.667 44.333 184 133 184c45.333 0 78 -14.333 98 -43s31 -71 33 -127c32.667 56 66.167 98.333 100.5 127
s80.166 43 137.499 43s113 -14.333 167 -43s81 -66.667 81 -114c0 -33.333 -11.5 -60.833 -34.5 -82.5s-47.833 -32.5 -74.5 -32.5c-10 0 -34.167 6.16699 -72.5 18.5s-72.166 18.5 -101.499 18.5c-40 0 -72.667 -10.5 -98 -31.5s-45 -52.167 -59 -93.5
s-23.667 -90.5 -29 -147.5s-8 -126.5 -8 -208.5z" />
    <glyph glyph-name="s" unicode="s" horiz-adv-x="1110" 
d="M1020 332c0 -75.333 -18.3359 -139.83 -55.0029 -193.497s-90.834 -94.334 -162.501 -122.001s-158.834 -41.5 -261.501 -41.5c-98 0 -182 15 -252 45s-121.667 67.5 -155 112.5s-50 90.167 -50 135.5c0 30 10.667 55.667 32 77s48.333 32 81 32
c28.667 0 50.667 -7 66 -21s30 -33.667 44 -59c28 -48.667 61.5 -85 100.5 -109s92.167 -36 159.5 -36c54.667 0 99.5 12.167 134.5 36.5s52.5 52.166 52.5 83.499c0 48 -18.167 83 -54.5 105s-96.166 43 -179.499 63c-94 23.333 -170.5 47.833 -229.5 73.5
s-106.167 59.5 -141.5 101.5s-53 93.667 -53 155c0 54.667 16.333 106.334 49 155.001s80.834 87.5 144.501 116.5s140.5 43.5 230.5 43.5c70.667 0 134.167 -7.33301 190.5 -22s103.333 -34.334 141 -59.001s66.334 -52 86.001 -82s29.5 -59.333 29.5 -88
c0 -31.333 -10.5 -57 -31.5 -77s-50.833 -30 -89.5 -30c-28 0 -51.833 8 -71.5 24s-42.167 40 -67.5 72c-20.667 26.667 -45 48 -73 64s-66 24 -114 24c-49.333 0 -90.333 -10.5 -123 -31.5s-49 -47.167 -49 -78.5c0 -28.667 12 -52.167 36 -70.5s56.333 -33.5 97 -45.5
s96.667 -26.667 168 -44c84.667 -20.667 153.834 -45.334 207.501 -74.001s94.334 -62.5 122.001 -101.5s41.5 -83.5 41.5 -133.5z" />
    <glyph glyph-name="t" unicode="t" horiz-adv-x="725" 
d="M156 1061l30.001 -0.00292969v164c0 44 1.16699 78.5 3.5 103.5s8.83301 46.5 19.5 64.5c10.667 18.667 26 33.834 46 45.501s42.333 17.5 67 17.5c34.667 0 66 -13 94 -39c18.667 -17.333 30.5 -38.5 35.5 -63.5s7.5 -60.5 7.5 -106.5v-186h100
c38.667 0 68.167 -9.16699 88.5 -27.5s30.5 -41.833 30.5 -70.5c0 -36.667 -14.5 -62.334 -43.5 -77.001s-70.5 -22 -124.5 -22h-51v-502c0 -42.667 1.5 -75.5 4.5 -98.5s11 -41.667 24 -56s34.167 -21.5 63.5 -21.5c16 0 37.667 2.83301 65 8.5s48.666 8.5 63.999 8.5
c22 0 41.833 -8.83301 59.5 -26.5s26.5 -39.5 26.5 -65.5c0 -44 -24 -77.667 -72 -101s-117 -35 -207 -35c-85.333 0 -150 14.333 -194 43s-72.833 68.334 -86.5 119.001s-20.5 118.334 -20.5 203.001v524h-36c-39.333 0 -69.333 9.33301 -90 28s-31 42.334 -31 71.001
s10.833 52.167 32.5 70.5s53.167 27.5 94.5 27.5z" />
    <glyph glyph-name="u" unicode="u" horiz-adv-x="1237" 
d="M850 129l-0.00292969 34.999c-32.667 -41.333 -67 -76 -103 -104s-75.333 -48.833 -118 -62.5s-91.334 -20.5 -146.001 -20.5c-66 0 -125.167 13.667 -177.5 41s-92.833 65 -121.5 113c-34 58 -51 141.333 -51 250v541c0 54.667 12.333 95.5 37 122.5
s57.334 40.5 98.001 40.5c41.333 0 74.666 -13.667 99.999 -41s38 -68 38 -122v-437c0 -63.333 5.33301 -116.5 16 -159.5s29.834 -76.667 57.501 -101s65.167 -36.5 112.5 -36.5c46 0 89.333 13.667 130 41s70.334 63 89.001 107c15.333 38.667 23 123.334 23 254.001v332
c0 54 12.667 94.667 38 122s58.333 41 99 41s73.334 -13.5 98.001 -40.5s37 -67.833 37 -122.5v-791c0 -52 -11.833 -91 -35.5 -117s-54.167 -39 -91.5 -39s-68.166 13.5 -92.499 40.5s-36.5 64.833 -36.5 113.5z" />
    <glyph glyph-name="v" unicode="v" horiz-adv-x="1110" 
d="M334 915l220.999 -620.001l238 647c18.667 52 37 88.833 55 110.5s45.333 32.5 82 32.5c34.667 0 64.167 -11.667 88.5 -35s36.5 -50.333 36.5 -81c0 -12 -2.16699 -26 -6.5 -42s-9.33301 -31 -15 -45l-19.5 -48l-262 -650l-28.5 -71
c-11.667 -28.667 -24.667 -53.167 -39 -73.5s-32 -36.166 -53 -47.499s-46.5 -17 -76.5 -17c-38.667 0 -69.5 8.83301 -92.5 26.5s-40 37 -51 58s-29.5 62.5 -55.5 124.5l-260 643l-18.5 48c-6.33301 16 -11.666 32.333 -15.999 49s-6.5 31 -6.5 43
c0 18.667 5.66699 37.167 17 55.5s27 33.333 47 45s41.667 17.5 65 17.5c45.333 0 76.5 -13 93.5 -39s35.833 -69.667 56.5 -131z" />
    <glyph glyph-name="w" unicode="w" horiz-adv-x="1665" 
d="M311 915l178.001 -610l162 567c17.333 59.333 30.166 99.833 38.499 121.5s24 42.334 47 62.001s54.5 29.5 94.5 29.5c40.667 0 72.5 -9.83301 95.5 -29.5s39.167 -41 48.5 -64s22.333 -62.833 39 -119.5l162 -567l180 610c12 44 21.667 75.833 29 95.5
s19.666 37 36.999 52s42.333 22.5 75 22.5s61 -11.333 85 -34s36 -49.334 36 -80.001c0 -28 -10.333 -70.333 -31 -127l-223 -654c-19.333 -55.333 -34.333 -95.333 -45 -120s-27.5 -46.667 -50.5 -66s-54.5 -29 -94.5 -29c-41.333 0 -73.833 10.333 -97.5 31
s-41.167 46 -52.5 76s-23.666 69 -36.999 117l-156 532l-151 -532c-20 -74 -41.667 -129.833 -65 -167.5s-64.333 -56.5 -123 -56.5c-30 0 -55.5 5.83301 -76.5 17.5s-38.5 28.334 -52.5 50.001s-26.333 47.334 -37 77.001l-25 70.5l-221 654
c-22 61.333 -33 103.666 -33 126.999c0 29.333 11.667 55.666 35 78.999s52 35 86 35c45.333 0 76 -12.833 92 -38.5s33 -69.5 51 -131.5z" />
    <glyph glyph-name="x" unicode="x" horiz-adv-x="1067" 
d="M733 88l-198.003 291.001l-203 -291c-29.333 -40.667 -54.166 -69.667 -74.499 -87s-46.166 -26 -77.499 -26c-34.667 0 -64.167 10.833 -88.5 32.5s-36.5 46.5 -36.5 74.5c0 28.667 18.667 69.667 56 123l247 354l-219 295c-38 48.667 -57 91 -57 127
c0 28 11.333 52.333 34 73s52.334 31 89.001 31c32 0 58.5 -9 79.5 -27s45.5 -46.333 73.5 -85l177 -242l172 242c28.667 40 53.5 68.667 74.5 86s47.167 26 78.5 26c36 0 65.833 -10.167 89.5 -30.5s35.5 -44.833 35.5 -73.5c0 -20.667 -4.83301 -40.5 -14.5 -59.5
s-24.5 -41.5 -44.5 -67.5l-219 -295l247 -354c38.667 -55.333 58 -97 58 -125c0 -28.667 -12 -53.334 -36 -74.001s-53.667 -31 -89 -31c-31.333 0 -57.833 9 -79.5 27s-46.5 46.667 -74.5 86z" />
    <glyph glyph-name="y" unicode="y" horiz-adv-x="1110" 
d="M393 -59l24.998 61l-336 846c-20.667 48.667 -31 84 -31 106c0 23.333 6 45 18 65s28.5 36 49.5 48s42.833 18 65.5 18c39.333 0 69 -12.5 89 -37.5s37.667 -60.833 53 -107.5l231 -672l219 625c17.333 50.667 33 90.334 47 119.001s28.833 48 44.5 58
s37.834 15 66.501 15c20.667 0 40.5 -5.5 59.5 -16.5s33.667 -25.833 44 -44.5s15.5 -38.334 15.5 -59.001c-2.66699 -12.667 -7 -30.667 -13 -54s-13.333 -47 -22 -71l-356 -932c-30.667 -82 -60.667 -146.333 -90 -193s-68.166 -82.5 -116.499 -107.5
s-113.5 -37.5 -195.5 -37.5c-80 0 -140 8.66699 -180 26s-60 49 -60 95c0 31.333 9.5 55.5 28.5 72.5s47.167 25.5 84.5 25.5c14.667 0 29 -2 43 -6c17.333 -4 32.333 -6 45 -6c31.333 0 56 4.66699 74 14s34.167 25.5 48.5 48.5s30.833 56.833 49.5 101.5z" />
    <glyph glyph-name="z" unicode="z" horiz-adv-x="1067" 
d="M883 772l-500.001 -558.999h535c43.333 0 76 -10.167 98 -30.5s33 -46.5 33 -78.5c0 -30.667 -10.833 -55.667 -32.5 -75s-54.5 -29 -98.5 -29h-740c-52 0 -90.833 11.333 -116.5 34s-38.5 53.667 -38.5 93c0 23.333 9 46.833 27 70.5s55.333 67.167 112 130.5l163.5 181
l136.5 151.5l104.5 119.5c27.667 32.667 49.834 60.667 66.501 84h-406c-56 0 -98.333 5 -127 15s-43 36.333 -43 79c0 31.333 10.833 56.333 32.5 75s52.5 28 92.5 28h627c58 0 102.5 -8.5 133.5 -25.5s46.5 -47.5 46.5 -91.5c0 -14.667 -3 -29.834 -9 -45.501
s-12.667 -28.5 -20 -38.5s-17.333 -22.167 -30 -36.5z" />
    <glyph glyph-name="braceleft" unicode="{" horiz-adv-x="788" 
d="M352 530c47.333 -29.333 84.335 -62.1699 111.002 -98.5029s45.334 -82.666 56.001 -138.999s16 -128.5 16 -216.5c0 -66 1.5 -114.667 4.5 -146s9 -55.166 18 -71.499s19.833 -27 32.5 -32s34.334 -9.83301 65.001 -14.5c25.333 -3.33301 46.333 -15.666 63 -36.999
s25 -49.333 25 -84c0 -80.667 -49 -121 -147 -121c-60.667 0 -114.834 12.667 -162.501 38s-84.5 61.166 -110.5 107.499s-39.333 99.5 -40 159.5c-2 101.333 -4 182.666 -6 243.999s-5 101 -9 119c-10 44.667 -24.833 78.334 -44.5 101.001s-45.334 43.834 -77.001 63.501
s-54.167 37.334 -67.5 53.001s-20 40.5 -20 74.5c0 49.333 19.333 86.333 58 111c48 30 82.167 55.5 102.5 76.5s34.666 48 42.999 81s13.166 69 14.499 108s3.33301 132.833 6 281.5c2 92 31.167 165.5 87.5 220.5s131.5 82.5 225.5 82.5c98 0 147 -39.667 147 -119
c0 -36 -8.16699 -64.333 -24.5 -85s-37.5 -32.667 -63.5 -36c-38.667 -5.33301 -65.667 -13.333 -81 -24s-25.333 -31.334 -30 -62.001s-7.66699 -90 -9 -178c-1.33301 -86 -6.5 -156.5 -15.5 -211.5s-26.667 -101.833 -53 -140.5s-64.5 -73.667 -114.5 -105z" />
    <glyph glyph-name="bar" unicode="|" horiz-adv-x="575" 
d="M399 1354v-1647c0 -45.333 -10.167 -79.5 -30.5 -102.5s-46.833 -34.5 -79.5 -34.5s-59.667 11.667 -81 35s-32 57.333 -32 102v1647c0 44.667 10.667 78.667 32 102s48.333 35 81 35s59.167 -11.833 79.5 -35.5s30.5 -57.5 30.5 -101.5z" />
    <glyph glyph-name="braceright" unicode="}" horiz-adv-x="788" 
d="M436 530c-36 22.667 -65.333 46.334 -88 71.001s-41.334 54.667 -56.001 90s-25 77.166 -31 125.499s-9 105.166 -9 170.499c0 63.333 -1.33301 111.833 -4 145.5s-8 58.167 -16 73.5s-19.167 25.833 -33.5 31.5s-36.166 10.167 -65.499 13.5
c-24.667 3.33301 -45.5 15.333 -62.5 36s-25.5 49 -25.5 85c0 79.333 48.333 119 145 119c62 0 116.5 -12.5 163.5 -37.5s84 -60.667 111 -107s40.833 -99.166 41.5 -158.499c4 -221.333 8.66699 -343 14 -365c10.667 -44 26.334 -77.5 47.001 -100.5s45.667 -43.333 75 -61
s51.166 -35.167 65.499 -52.5s21.5 -43.666 21.5 -78.999c0 -50 -19 -86.667 -57 -110c-46.667 -28.667 -80.5 -53.834 -101.5 -75.501s-35.667 -48.667 -44 -81s-13.333 -80.833 -15 -145.5s-3.5 -145.667 -5.5 -243c-2 -92 -31.5 -165.833 -88.5 -221.5
s-132.833 -83.5 -227.5 -83.5c-46.667 0 -82.5 10.333 -107.5 31s-37.5 50.667 -37.5 90c0 22 4 42.167 12 60.5s18.5 32.5 31.5 42.5s27.833 16 44.5 18c30 4 52.333 9 67 15s25.834 17.333 33.501 34s12.667 41.167 15 73.5s3.5 79.5 3.5 141.5
c1.33301 92 6.66602 164 15.999 216s27 96.667 53 134s64.333 72 115 104z" />
    <glyph glyph-name="asciitilde" unicode="~" horiz-adv-x="1194" 
d="M338 657c-94 0 -184.667 -45.666 -272 -136.999v258c44 49.333 90.167 84.5 138.5 105.5s102.5 31.5 162.5 31.5c46 0 89.833 -6 131.5 -18s84.5 -26.833 128.5 -44.5l129 -49.5c42 -15.333 74.667 -23 98 -23c42 0 87.167 12.333 135.5 37s94.5 60.334 138.5 107.001
v-269c-20 -20.667 -46.167 -41.5 -78.5 -62.5s-65.5 -38 -99.5 -51s-66 -19.5 -96 -19.5c-48 0 -92.5 5.66699 -133.5 17s-87.667 28.166 -140 50.499s-95.5 39.166 -129.5 50.499s-71.667 17 -113 17z" />
    <glyph glyph-name="nonbreakingspace" unicode="&#xa0;" horiz-adv-x="512" 
 />
    <glyph glyph-name="exclamdown" unicode="&#xa1;" horiz-adv-x="682" 
d="M342 1085c41.333 0 76.666 -13.167 105.999 -39.5s44 -62.833 44 -109.5c0 -41.333 -15 -76.666 -45 -105.999s-65.667 -44 -107 -44c-37.333 0 -71.666 15.667 -102.999 47s-47 65.666 -47 102.999c0 47.333 14.833 84 44.5 110s65.5 39 107.5 39zM449 428l33.9971 -481
c6 -96 9 -162.333 9 -199c0 -56 -14.167 -99.667 -42.5 -131s-66.833 -47 -115.5 -47c-55.333 0 -93.166 20 -113.499 60s-30.5 97.667 -30.5 173c0 37.333 2.33301 81 7 131l43 494c4.66699 59.333 14.334 104.833 29.001 136.5s39.667 47.5 75 47.5
c36 0 61.333 -15.833 76 -47.5s24.334 -77.167 29.001 -136.5z" />
    <glyph glyph-name="cent" unicode="&#xa2;" 
d="M940 1348l-94.0029 -292.995c52.667 -20 98.834 -46.5 138.501 -79.5s69.834 -67.667 90.501 -104s31 -68.833 31 -97.5c0 -32 -12.333 -59.5 -37 -82.5s-54 -34.5 -88 -34.5c-28 0 -48.5 6.83301 -61.5 20.5s-33.333 39.667 -61 78s-55.167 66.5 -82.5 84.5l-205 -654
c30 -4 51.333 -6 64 -6c57.333 0 102.5 11 135.5 33s64.333 55.333 94 100s52.5 75.667 68.5 93s39.667 26 71 26c32.667 0 60.167 -12.167 82.5 -36.5s33.5 -52.5 33.5 -84.5c0 -32.667 -10.333 -68.334 -31 -107.001s-51.834 -75.167 -93.501 -109.5s-94 -62.5 -157 -84.5
s-134.167 -33 -213.5 -33c-40.667 0 -79.667 3 -117 9l-90 -283c-8 -26.667 -17.667 -48.334 -29 -65.001s-25 -25 -41 -25c-44.667 0 -67 20.333 -67 61c0 11.333 6.66699 38.666 20 81.999l84 262c-63.333 27.333 -117.166 65.166 -161.499 113.499
s-78 105.833 -101 172.5s-34.5 140.667 -34.5 222c0 56.667 5.33301 109.834 16 159.501s26.667 95.5 48 137.5s47.666 80.333 78.999 115c32 34.667 68.333 63.167 109 85.5s84.834 38.166 132.501 47.499s101.834 14 162.501 14c39.333 0 68 -1.33301 86 -4l96 301
c8 26 17.5 45.833 28.5 59.5s26.167 20.5 45.5 20.5c39.333 0 59 -22.333 59 -67c0 -14.667 -3.33301 -30.334 -10 -47.001zM460.997 252.005l196 627c-13.333 2.66699 -22 4 -26 4c-52 0 -98.333 -13.833 -139 -41.5s-72.5 -68 -95.5 -121s-34.5 -116.5 -34.5 -190.5
c0 -130 33 -222.667 99 -278z" />
    <glyph glyph-name="sterling" unicode="&#xa3;" 
d="M494 823l148.998 -0.000976562c54.667 0 97 -5.5 127 -16.5s45 -36.833 45 -77.5c0 -28 -10 -50.667 -30 -68s-46 -26 -78 -26h-177v-17c0 -67.333 -15.167 -129.166 -45.5 -185.499s-83.166 -126.833 -158.499 -211.5c22 5.33301 43.833 10.333 65.5 15
s46 8.83398 73 12.501s56.5 5.5 88.5 5.5c44.667 0 107 -5.16699 187 -15.5s133 -15.5 159 -15.5c38 0 78.833 6.83301 122.5 20.5s71.167 20.5 82.5 20.5c30 0 56.667 -12 80 -36s35 -52.333 35 -85c0 -55.333 -31.167 -97.833 -93.5 -127.5s-128.833 -44.5 -199.5 -44.5
c-43.333 0 -166.333 23.333 -369 70c-5.33301 1.33301 -14.333 4 -27 8s-28.334 7.33301 -47.001 10s-41 4 -67 4c-28 0 -52.667 -4 -74 -12s-58.166 -22.667 -110.499 -44s-87.833 -32 -106.5 -32c-25.333 0 -50.166 11.5 -74.499 34.5s-36.5 53.167 -36.5 90.5
c0 14 4.33301 28.667 13 44s22.334 32.833 41.001 52.5s46.667 45.5 84 77.5c34 28.667 62.5 68.834 85.5 120.501s34.5 102.5 34.5 152.5c0 17.333 -3.33301 46.666 -10 87.999h-84c-49.333 0 -86.5 6 -111.5 18s-37.5 36 -37.5 72c0 65.333 42.333 98 127 98h59
c-32.667 104 -49 186 -49 246c0 82 19.333 155 58 219s94 114.167 166 150.5s154.333 54.5 247 54.5c82 0 152.333 -10.167 211 -30.5s110.667 -53.833 156 -100.5c77.333 -80.667 116 -166.667 116 -258c0 -32.667 -12.667 -61.667 -38 -87s-56.333 -38 -93 -38
c-64.667 0 -107.667 36 -129 108c-19.333 69.333 -45.833 120.5 -79.5 153.5s-78.834 49.5 -135.501 49.5c-61.333 0 -110.833 -19.833 -148.5 -59.5s-56.5 -90.834 -56.5 -153.501c0 -38 4 -73.5 12 -106.5s22 -82.167 42 -147.5z" />
    <glyph glyph-name="currency" unicode="&#xa4;" horiz-adv-x="1130" 
d="M176 938c-28.667 29.333 -49.165 52.666 -61.498 69.999s-18.5 39.666 -18.5 66.999c0 36.667 10.5 66 31.5 88s50.167 33 87.5 33c24 0 46.167 -6.83301 66.5 -20.5s43.166 -33.5 68.499 -59.5c70.667 36.667 142.334 55 215.001 55
c47.333 0 88.166 -5.16699 122.499 -15.5s65.833 -23.5 94.5 -39.5c29.333 29.333 52.666 50 69.999 62s38.333 18 63 18c37.333 0 66.5 -11.333 87.5 -34s31.5 -51.667 31.5 -87c0 -26.667 -6.5 -49.834 -19.5 -69.501s-32.5 -42.167 -58.5 -67.5
c34.667 -66 52 -135.667 52 -209c0 -38.667 -4.33301 -74.5 -13 -107.5s-21.667 -66.833 -39 -101.5c26.667 -25.333 46.334 -47.666 59.001 -66.999s19 -42.666 19 -69.999c0 -35.333 -10.667 -64.333 -32 -87s-50.333 -34 -87 -34c-23.333 0 -43.333 5.66699 -60 17
s-41 32.333 -73 63c-66.667 -35.333 -139 -53 -217 -53c-45.333 0 -83 4.16699 -113 12.5s-64 21.833 -102 40.5c-26.667 -26.667 -49.834 -46.667 -69.501 -60s-41.5 -20 -65.5 -20c-37.333 0 -66.5 11.167 -87.5 33.5s-31.5 51.5 -31.5 87.5
c0 26.667 6.66699 49.834 20 69.501s33.333 42.167 60 67.5c-35.333 73.333 -53 143 -53 209c0 72 17.667 141.667 53 209zM365.002 729c0 -36.667 9.00098 -70.832 27.001 -102.499s42.167 -56.667 72.5 -75s63.833 -27.5 100.5 -27.5s70.5 9.16699 101.5 27.5
s55.667 43.166 74 74.499s27.5 65.666 27.5 102.999c0 36.667 -9.16699 70.5 -27.5 101.5s-43.166 55.333 -74.499 73s-65 26.5 -101 26.5c-36.667 0 -70.334 -9 -101.001 -27s-54.834 -42.667 -72.501 -74s-26.5 -64.666 -26.5 -99.999z" />
    <glyph glyph-name="yen" unicode="&#xa5;" horiz-adv-x="1280" 
d="M287 444l225 -0.000976562v144h-225c-94.667 0 -142 31.333 -142 94c0 61.333 47.333 92 142 92h127l-299 469c-24 37.333 -39.667 64 -47 80s-11 33.667 -11 53c0 34.667 10.5 62.5 31.5 83.5s48.167 31.5 81.5 31.5c34 0 61.5 -10.333 82.5 -31s45.5 -54 73.5 -100
l323 -506l289 477l34 58.5c12 20.333 23.667 37.666 35 51.999s25.5 26.166 42.5 35.499s37.167 14 60.5 14c33.333 0 60.5 -10.167 81.5 -30.5s31.5 -45.166 31.5 -74.499c0 -23.333 -4.16699 -44.666 -12.5 -63.999s-21.5 -43.666 -39.5 -72.999l-288 -475h127
c94 0 141 -30.667 141 -92c0 -62.667 -47 -94 -141 -94h-226v-144h226c94 0 141 -31.333 141 -94c0 -61.333 -47 -92 -141 -92h-226v-80c0 -135.333 -45 -203 -135 -203c-91.333 0 -137 67.667 -137 203v80h-225c-94.667 0 -142 30.667 -142 92c0 62.667 47.333 94 142 94z
" />
    <glyph glyph-name="brokenbar" unicode="&#xa6;" horiz-adv-x="575" 
d="M399 223v-467c0 -58 -5.66699 -103.5 -17 -136.5s-42.333 -49.5 -93 -49.5c-32.667 0 -59.667 11.667 -81 35s-32 57.333 -32 102v516c0 44.667 10.667 78.667 32 102s48.333 35 81 35s59.167 -11.833 79.5 -35.5s30.5 -57.5 30.5 -101.5zM399 1354v-515.998
c0 -46.667 -10.167 -81.334 -30.5 -104.001s-46.833 -34 -79.5 -34s-59.667 11.667 -81 35s-32 57.666 -32 102.999v516c0 44.667 10.667 78.667 32 102s48.333 35 81 35s59.167 -11.833 79.5 -35.5s30.5 -57.5 30.5 -101.5z" />
    <glyph glyph-name="section" unicode="&#xa7;" 
d="M172 1163c0 58.667 16.498 113.171 49.498 163.504s81.667 90.666 146 120.999s140.5 45.5 228.5 45.5c65.333 0 125.833 -8.66699 181.5 -26s103 -40.5 142 -69.5s68.833 -60.667 89.5 -95s31 -68.5 31 -102.5c0 -26.667 -11.667 -50.334 -35 -71.001
s-49.666 -31 -78.999 -31c-28 0 -49.833 6.83301 -65.5 20.5s-37 37 -64 70s-54.333 58.167 -82 75.5s-63.834 26 -108.501 26c-51.333 0 -92.166 -12.333 -122.499 -37s-45.5 -53.334 -45.5 -86.001c0 -34 13 -63.167 39 -87.5s69.833 -53.166 131.5 -86.499
s102.5 -56.333 122.5 -69l157.5 -92.5c46.333 -27 88.5 -56.333 126.5 -88s67.833 -68.334 89.5 -110.001s32.5 -90.5 32.5 -146.5c0 -62.667 -17 -119.5 -51 -170.5s-83.333 -94.5 -148 -130.5c90 -74.667 135 -162.667 135 -264c0 -48 -10.167 -93.333 -30.5 -136
s-50.166 -80.334 -89.499 -113.001s-86 -58 -140 -76s-113.333 -27 -178 -27c-78 0 -146.667 10.5 -206 31.5s-110.5 49.833 -153.5 86.5s-74.667 75.167 -95 115.5s-30.5 78.5 -30.5 114.5c0 33.333 12 62.833 36 88.5s54 38.5 90 38.5c14 0 28.167 -2.83301 42.5 -8.5
s24.833 -12.5 31.5 -20.5c33.333 -42 57.333 -78.667 72 -110c38.667 -88.667 107 -133 205 -133c54 0 97.5 14.5 130.5 43.5s49.5 62.833 49.5 101.5c0 26.667 -9.33301 51.5 -28 74.5s-45.5 46.5 -80.5 70.5s-88.5 58.167 -160.5 102.5l-219 137.5l-87 59.5
c-30 21 -56.333 43.833 -79 68.5s-40.5 53.167 -53.5 85.5s-19.5 70.5 -19.5 114.5c0 121.333 70.333 219 211 293c-79.333 68 -119 147.667 -119 239zM425.998 813.004c-78 -50 -116.999 -101.335 -116.999 -154.002c0 -27.333 9.83301 -52.666 29.5 -75.999
s46.167 -45.833 79.5 -67.5s85 -53.5 155 -95.5l85 -50.5c36 -21.667 71.333 -41.834 106 -60.501c79.333 56.667 119 107.334 119 152.001c0 24 -7 46.167 -21 66.5s-33 39.833 -57 58.5s-53.833 38.834 -89.5 60.501l-137.5 80.5l-102 58.5
c-22.667 13 -39.334 22.167 -50.001 27.5z" />
    <glyph glyph-name="dieresis" unicode="&#xa8;" horiz-adv-x="682" 
d="M147 1219c-28.667 0 -54.5 10 -77.5 30s-34.5 47.333 -34.5 82c0 33.333 11 60.5 33 81.5s48.333 31.5 79 31.5c30 0 56.333 -9.5 79 -28.5s34 -47.167 34 -84.5c0 -34.667 -11.333 -62 -34 -82s-49 -30 -79 -30zM537 1444c18.667 0 37 -5 55 -15s32 -24 42 -42
s15 -36.667 15 -56c0 -34.667 -11 -62 -33 -82s-48.333 -30 -79 -30c-29.333 0 -55.5 10 -78.5 30s-34.5 47.333 -34.5 82c0 30 11.333 56.333 34 79s49 34 79 34z" />
    <glyph glyph-name="copyright" unicode="&#xa9;" horiz-adv-x="1516" 
d="M1106 907l-164.001 -39.002c-35.333 93.333 -94.666 140 -177.999 140c-64 0 -114.167 -24.667 -150.5 -74s-54.5 -115 -54.5 -197c0 -64.667 7.66699 -119.167 23 -163.5s37.833 -77.666 67.5 -99.999s65.167 -33.5 106.5 -33.5c92 0 154.667 57.333 188 172l162 -55
c-53.333 -173.333 -171.333 -260 -354 -260c-65.333 0 -126.166 16 -182.499 48s-101.5 80.667 -135.5 146s-51 143.333 -51 234c0 84.667 15.667 158.834 47 222.501s76.166 113.167 134.499 148.5s126.833 53 205.5 53c165.333 0 277.333 -80.667 336 -242zM757.999 1491
c104.667 0 203.499 -19.501 296.499 -58.501s175 -94 246 -165s126 -153 165 -246s58.5 -191.833 58.5 -296.5c0 -137.333 -34.5 -264.833 -103.5 -382.5s-162.167 -210.667 -279.5 -279s-245 -102.5 -383 -102.5c-140 0 -268.5 34 -385.5 102s-209.667 160.833 -278 278.5
s-102.5 245.5 -102.5 383.5c0 138.667 34.167 266.834 102.5 384.501s161.333 210.667 279 279s245.834 102.5 384.501 102.5zM757.998 1341c-112.667 0 -215.835 -27.6719 -309.502 -83.0049s-168 -130.166 -223 -224.499s-82.5 -197.166 -82.5 -308.499
c0 -112 27.5 -214.833 82.5 -308.5s129.5 -168 223.5 -223s197 -82.5 309 -82.5c111.333 0 214.333 27.333 309 82s169.5 128.834 224.5 222.501s82.5 196.834 82.5 309.501c0 110.667 -27.667 213.334 -83 308.001s-130.166 169.667 -224.499 225s-197.166 83 -308.499 83z
" />
    <glyph glyph-name="ordfeminine" unicode="&#xaa;" horiz-adv-x="768" 
d="M524 895c-47.333 -30 -89 -51.833 -125 -65.5s-79 -20.5 -129 -20.5c-70 0 -126.667 19 -170 57s-65 84 -65 138c0 46.667 11.833 83.834 35.5 111.501s55.5 48.167 95.5 61.5s100.5 28 181.5 44s132.5 26.667 154.5 32c-2.66699 34.667 -11.167 59.834 -25.5 75.501
s-44.833 23.5 -91.5 23.5c-53.333 0 -87.5 -5.83301 -102.5 -17.5s-33.333 -32.5 -55 -62.5s-46.834 -45 -75.501 -45c-22.667 0 -42.667 7 -60 21s-26 32.333 -26 55c0 30.667 11.5 60.5 34.5 89.5s58.333 52.667 106 71s107.167 27.5 178.5 27.5
c116.667 0 198 -20 244 -60s69 -107.333 69 -202c0 -42 -0.166992 -75.667 -0.5 -101s-0.833008 -53.333 -1.5 -84c0 -28.667 5.5 -58.834 16.5 -90.501s16.5 -53.834 16.5 -66.501c0 -22 -9.5 -40.833 -28.5 -56.5s-40.833 -23.5 -65.5 -23.5
c-13.333 0 -26.666 4 -39.999 12s-25.5 18.167 -36.5 30.5s-22.5 27.5 -34.5 45.5zM504 1114l0.000976562 11.999c-6.66699 -1.33301 -44.167 -9.66602 -112.5 -24.999s-111.333 -28 -129 -38s-26.5 -25.667 -26.5 -47s8.66699 -39.333 26 -54s40.666 -22 69.999 -22
c53.333 0 95.333 14.5 126 43.5s46 72.5 46 130.5z" />
    <glyph glyph-name="guillemotleft" unicode="&#xab;" 
d="M543 813l-180.999 -289.001l191 -303c18 -25.333 27 -49 27 -71c0 -24 -9 -44.5 -27 -61.5s-40 -25.5 -66 -25.5c-20 0 -38.5 6.66699 -55.5 20s-37.833 38.333 -62.5 75l-179 268c-28.667 44 -43 76 -43 96c0 24 14.333 58.333 43 103l185 276
c36 54.667 72.667 82 110 82c25.333 0 47.166 -8.16699 65.499 -24.5s27.5 -36.166 27.5 -59.499c0 -18 -3.83301 -33.667 -11.5 -47zM1001 812.999l-180 -288.999l191 -303c18.667 -30 28 -53.667 28 -71c0 -24 -9 -44.5 -27 -61.5s-40.333 -25.5 -67 -25.5
c-20.667 0 -39.5 6.66699 -56.5 20s-37.833 38.333 -62.5 75l-176 268c-30 48 -45 80 -45 96c0 22 15 56.333 45 103l183 276c34.667 54.667 72 82 112 82c24.667 0 46.167 -8.33301 64.5 -25s27.5 -36.334 27.5 -59.001c0 -12.667 -1.66699 -23.5 -5 -32.5
s-7 -16.333 -11 -22s-11 -16.167 -21 -31.5z" />
    <glyph glyph-name="logicalnot" unicode="&#xac;" horiz-adv-x="1194" 
d="M1110 377h-258v438h-768v262h1026v-700z" />
    <glyph glyph-name="registered" unicode="&#xae;" horiz-adv-x="1516" 
d="M578 315l-166 -0.000976562v813h385c60 0 110.333 -9.5 151 -28.5s71.334 -46 92.001 -81s31 -75.5 31 -121.5c0 -57.333 -19.333 -106.833 -58 -148.5s-92.334 -67.167 -161.001 -76.5c35.333 -13.333 63.833 -33.166 85.5 -59.499s50.5 -70.833 86.5 -133.5l96 -164
h-205l-67 131c-31.333 58.667 -58 102.167 -80 130.5s-44 47.5 -66 57.5s-49 15 -81 15h-43v-334zM578 998.999l-0.000976562 -221.001h133c60 0 105.667 7.83301 137 23.5s47 46.834 47 93.501c0 32 -13.667 57.333 -41 76s-69.666 28 -126.999 28h-149zM757.999 1491
c104.667 0 203.501 -19.501 296.501 -58.501s175 -94 246 -165s126 -153 165 -246s58.5 -191.833 58.5 -296.5c0 -138.667 -34.167 -266.834 -102.5 -384.501s-161.333 -210.667 -279 -279s-245.834 -102.5 -384.501 -102.5s-266.834 34.167 -384.501 102.5
s-210.667 161.333 -279 279s-102.5 245.834 -102.5 384.501s34.167 266.834 102.5 384.501s161.333 210.667 279 279s245.834 102.5 384.501 102.5zM760 1341c-111.333 0 -214.337 -27.501 -309.004 -82.501s-169.667 -129.833 -225 -224.5s-83 -197.667 -83 -309
s27.833 -214.5 83.5 -309.5s130.834 -169.833 225.501 -224.5s197.334 -82 308.001 -82c112.667 0 215.834 27.5 309.501 82.5s167.834 129.833 222.501 224.5s82 197.667 82 309c0 112 -27.333 215.333 -82 310s-129 169.334 -223 224.001s-197 82 -309 82z" />
    <glyph glyph-name="macron" unicode="&#xaf;" horiz-adv-x="1024" 
d="M-12 1654v102h1048v-102h-1048z" />
    <glyph glyph-name="degree" unicode="&#xb0;" horiz-adv-x="811" 
d="M86 1171c0 44 8.66797 86 26.001 126s40.5 74.167 69.5 102.5s62.833 50.666 101.5 66.999s79.667 24.5 123 24.5c56.667 0 109.667 -14.167 159 -42.5s88.333 -67.166 117 -116.499s43 -103 43 -161c0 -57.333 -14.333 -110.5 -43 -159.5s-67.334 -87.5 -116.001 -115.5
s-102 -42 -160 -42c-88 0 -163.333 31 -226 93s-94 136.667 -94 224zM252.001 1171c0 -42 15.334 -77.667 46.001 -107s66.667 -44 108 -44s76.833 14.5 106.5 43.5s44.5 64.833 44.5 107.5c0 28.667 -6.83301 54.667 -20.5 78s-32.334 41.833 -56.001 55.5
s-48.5 20.5 -74.5 20.5c-42 0 -78.167 -15.167 -108.5 -45.5s-45.5 -66.5 -45.5 -108.5z" />
    <glyph glyph-name="plusminus" unicode="&#xb1;" horiz-adv-x="1194" 
d="M725 356h-258v381h-383v262h383v381h258v-381h385v-262h-385v-381zM1110 0h-1026v262h1026v-262z" />
    <glyph glyph-name="twosuperior" unicode="&#xb2;" horiz-adv-x="725" 
d="M598 723l-434.004 -0.00390625c-34 0 -60.333 8.33301 -79 25s-28 36.334 -28 59.001c0 24 8.33301 46.833 25 68.5s38.334 43.5 65.001 65.5s67 53.667 121 95l81.5 56.5c49.667 34.333 84.667 62.833 105 85.5s30.5 47.667 30.5 75c0 29.333 -11.167 52.5 -33.5 69.5
s-51.166 25.5 -86.499 25.5c-37.333 0 -65.166 -7.33301 -83.499 -22s-34.666 -36.5 -48.999 -65.5s-26.833 -49.333 -37.5 -61s-29.334 -17.5 -56.001 -17.5c-22.667 0 -41.667 6.83301 -57 20.5s-23 31.834 -23 54.501c0 32.667 11.333 65.834 34 99.501
s57.334 61.5 104.001 83.5s104 33 172 33c102 0 178 -21.167 228 -63.5s75 -93.833 75 -154.5c0 -55.333 -19.667 -103.5 -59 -144.5s-95.5 -85.667 -168.5 -134s-120.167 -84.5 -141.5 -108.5h277c34 0 60.167 -6.5 78.5 -19.5s27.5 -30.833 27.5 -53.5
c0 -19.333 -7.5 -36.166 -22.5 -50.499s-36.833 -21.5 -65.5 -21.5z" />
    <glyph glyph-name="threesuperior" unicode="&#xb3;" horiz-adv-x="725" 
d="M291 1051c-21.333 0 -39.332 5.66895 -53.999 17.002s-22 26.666 -22 45.999c0 20.667 7.83301 37.167 23.5 49.5s37.167 18.5 64.5 18.5h37c28.667 0 55 7.66699 79 23s36 37 36 65c0 24 -9.16699 43.333 -27.5 58s-43.5 22 -75.5 22c-28 0 -50 -3.83301 -66 -11.5
s-27.333 -16.667 -34 -27s-17.667 -30.5 -33 -60.5c-2.66699 -6.66699 -10.5 -13.334 -23.5 -20.001s-26.167 -10 -39.5 -10c-22 0 -40.5 7.16699 -55.5 21.5s-22.5 30.833 -22.5 49.5c0 28.667 11.667 57 35 85s56.666 51.333 99.999 70s94 28 152 28
c55.333 0 103.833 -8.66699 145.5 -26s73.834 -40.666 96.501 -69.999s34 -62.333 34 -99c0 -32 -7.66699 -59.5 -23 -82.5s-37 -46.167 -65 -69.5c41.333 -20 72.833 -45.333 94.5 -76s32.5 -64.667 32.5 -102c0 -66.667 -30 -124.167 -90 -172.5s-138 -72.5 -234 -72.5
c-62 0 -116.333 11.833 -163 35.5s-82 52.5 -106 86.5s-36 65 -36 93c0 18.667 8.33301 35.5 25 50.5s37.667 22.5 63 22.5c14 0 27.667 -3.5 41 -10.5s21.666 -15.167 24.999 -24.5c20.667 -46 41.167 -79 61.5 -99s50.166 -30 89.499 -30
c36.667 0 68.834 10.667 96.501 32s41.5 49.666 41.5 84.999c0 34 -11.167 61 -33.5 81s-52.833 30 -91.5 30c-9.33301 0 -16.5 -0.166992 -21.5 -0.5s-11.167 -0.833008 -18.5 -1.5s-14.5 -1.5 -21.5 -2.5s-12.5 -1.5 -16.5 -1.5z" />
    <glyph glyph-name="acute" unicode="&#xb4;" horiz-adv-x="682" 
d="M422 1477h135.001c34 0 51 -5 51 -15c0 -5.33301 -18.667 -27 -56 -65s-75 -74.333 -113 -109s-64.333 -55.667 -79 -63c-38 -19.333 -78.667 -29 -122 -29c-28.667 0 -43 8.33301 -43 25c0 11.333 8.66699 31 26 59l45 84c26 48.667 48.667 79.667 68 93
s48.666 20 87.999 20z" />
    <glyph glyph-name="mu" unicode="&#xb5;" horiz-adv-x="1260" 
d="M856 0l0.00292969 128.999c-28 -53.333 -60.833 -92.666 -98.5 -117.999s-75.834 -38 -114.501 -38c-54.667 0 -97.334 13.833 -128.001 41.5s-59 65.834 -85 114.501v-537h-278v1469h278v-479c0 -41.333 5.33301 -111 16 -209c5.33301 -44 25.166 -83.667 59.499 -119
s75.5 -53 123.5 -53c62.667 0 112.5 26.167 149.5 78.5s55.5 131.166 55.5 236.499v545h284v-1061h-262z" />
    <glyph glyph-name="paragraph" unicode="&#xb6;" horiz-adv-x="1153" 
d="M852 1386h-188v-1785h-103v903c-47.333 2 -89.166 5.33301 -125.499 10s-72.833 12.5 -109.5 23.5s-71 25.833 -103 44.5s-61.333 41 -88 67c-88.667 88.667 -133 202 -133 340c0 166.667 59.333 295 178 385c51.333 39.333 114.666 64.5 189.999 75.5s184 16.5 326 16.5
h430v-80h-170v-1785h-104v1785z" />
    <glyph glyph-name="cedilla" unicode="&#xb8;" horiz-adv-x="682" 
d="M215 -96c6 48.667 53.667 72.999 143 72.999c51.333 0 97.333 -10 138 -30s72 -45.167 94 -75.5s33 -61.166 33 -92.499c0 -36 -12 -68.5 -36 -97.5s-59.667 -51.5 -107 -67.5s-105.666 -24 -174.999 -24c-132.667 0 -199 22 -199 66c0 13.333 4.83301 24.833 14.5 34.5
s22.834 14.5 39.501 14.5c2 0 19 -1.33301 51 -4s60.667 -4 86 -4c47.333 0 83.666 7.33301 108.999 22s38 34.667 38 60c0 22.667 -9.16699 40.667 -27.5 54s-46.5 20 -84.5 20c-14.667 0 -30.834 -2.16699 -48.501 -6.5s-27.5 -6.5 -29.5 -6.5c-11.333 0 -21 5 -29 15
s-12 21.333 -12 34c0.666992 2.66699 1.16699 5 1.5 7s0.5 4.66699 0.5 8z" />
    <glyph glyph-name="onesuperior" unicode="&#xb9;" horiz-adv-x="725" 
d="M332 805l-0.00292969 422c-93.333 -57.333 -156.333 -86 -189 -86c-20 0 -37.5 6.5 -52.5 19.5s-22.5 28.833 -22.5 47.5c0 34 30.667 60.667 92 80c43.333 14.667 78.833 32 106.5 52s52.334 43 74.001 69s37.834 43.5 48.501 52.5s26.334 13.5 47.001 13.5
c24.667 0 44.5 -8.16699 59.5 -24.5s22.5 -38.5 22.5 -66.5v-559c0 -76 -31.333 -114 -94 -114c-26.667 0 -48.667 8.33301 -66 25s-26 39.667 -26 69z" />
    <glyph glyph-name="ordmasculine" unicode="&#xba;" horiz-adv-x="788" 
d="M756 1149c0 -67.333 -14.6689 -126.5 -44.002 -177.5s-71 -90.833 -125 -119.5s-118 -43 -192 -43c-109.333 0 -196.666 31.5 -261.999 94.5s-98 144.833 -98 245.5c0 67.333 14.667 127 44 179s71.333 92.5 126 121.5s118 43.5 190 43.5s135.333 -14.5 190 -43.5
s96.834 -69.5 126.501 -121.5s44.5 -111.667 44.5 -179zM554.998 1149c0 61.333 -14.168 109 -42.501 143s-67.5 51 -117.5 51c-49.333 0 -88.166 -17 -116.499 -51s-42.5 -81.667 -42.5 -143c0 -60.667 14 -107.667 42 -141s67 -50 117 -50c50.667 0 90 16.667 118 50
s42 80.333 42 141z" />
    <glyph glyph-name="guillemotright" unicode="&#xbb;" 
d="M664 221l190.002 302.995l-180 289c-8 10.667 -14.333 19.667 -19 27s-8.83398 15.833 -12.501 25.5s-5.5 20.834 -5.5 33.501c0 22.667 9.33301 42.334 28 59.001s40 25 64 25c39.333 0 77 -27.333 113 -82l182 -276c15.333 -23.333 26.666 -42.166 33.999 -56.499
s11 -29.833 11 -46.5c0 -19.333 -15 -51.333 -45 -96l-176 -268c-24 -36.667 -44.833 -61.667 -62.5 -75s-36.5 -20 -56.5 -20c-26 0 -48.167 8.33301 -66.5 25s-27.5 37.334 -27.5 62.001c0 22.667 9.66699 46.334 29 71.001zM205.002 220.995l190 302.999l-180 289
l-18.5 28.5c-5.66699 8.33301 -10.167 17.5 -13.5 27.5s-5 20 -5 30c0 22.667 9.33301 42.334 28 59.001s40 25 64 25c38 0 75 -27.333 111 -82l184 -276c28.667 -42 43 -76.333 43 -103c0 -20.667 -14.333 -52.667 -43 -96l-176 -268
c-24 -36.667 -44.833 -61.667 -62.5 -75s-36.5 -20 -56.5 -20c-26.667 0 -49 8.5 -67 25.5s-27 37.5 -27 61.5c0 20 9.66699 43.667 29 71z" />
    <glyph glyph-name="onequarter" unicode="&#xbc;" horiz-adv-x="1749" 
d="M332 805l-0.00292969 422c-93.333 -57.333 -156.333 -86 -189 -86c-20 0 -37.5 6.5 -52.5 19.5s-22.5 28.833 -22.5 47.5c0 34 30.667 60.667 92 80c43.333 14.667 78.833 32 106.5 52s52.334 43 74.001 69s37.834 43.5 48.501 52.5s26.334 13.5 47.001 13.5
c24.667 0 44.5 -8.16699 59.5 -24.5s22.5 -38.5 22.5 -66.5v-559c0 -76 -31.333 -114 -94 -114c-26.667 0 -48.667 8.33301 -66 25s-26 39.667 -26 69zM1438 76l0.000976562 78h-285c-40.667 0 -71.334 8.5 -92.001 25.5s-31 39.167 -31 66.5c0 16 4.83301 30.333 14.5 43
s23.834 29 42.501 49l314 348c20.667 23.333 38.667 40.833 54 52.5s32.666 17.5 51.999 17.5c32.667 0 58 -8.66699 76 -26s27 -42.333 27 -75v-364h41c26.667 0 47.667 -6.83301 63 -20.5s23 -30.167 23 -49.5c0 -44.667 -34.333 -67 -103 -67h-24v-78
c0 -29.333 -8.16699 -51.333 -24.5 -66s-36.833 -22 -61.5 -22s-45.167 7.16699 -61.5 21.5s-24.5 36.5 -24.5 66.5zM1227 291h211v237zM1356 1343l-834 -1343c-21.333 -36.667 -45 -55 -71 -55c-16 0 -31.667 5.83301 -47 17.5s-23 26.834 -23 45.501
c0 14 6.66699 31 20 51l840 1354l17.5 28c5.66699 9.33301 11.334 17.333 17.001 24s12.667 12 21 16s18.5 6 30.5 6c21.333 0 37.666 -6 48.999 -18s17 -27.333 17 -46c0 -12 -12.333 -38.667 -37 -80z" />
    <glyph glyph-name="onehalf" unicode="&#xbd;" horiz-adv-x="1749" 
d="M332 805l-0.00292969 422c-93.333 -57.333 -156.333 -86 -189 -86c-20 0 -37.5 6.5 -52.5 19.5s-22.5 28.833 -22.5 47.5c0 34 30.667 60.667 92 80c43.333 14.667 78.833 32 106.5 52s52.334 43 74.001 69s37.834 43.5 48.501 52.5s26.334 13.5 47.001 13.5
c24.667 0 44.5 -8.16699 59.5 -24.5s22.5 -38.5 22.5 -66.5v-559c0 -76 -31.333 -114 -94 -114c-26.667 0 -48.667 8.33301 -66 25s-26 39.667 -26 69zM1622 0l-434.001 -0.000976562c-33.333 0 -59.5 8 -78.5 24s-28.5 35.333 -28.5 58c0 24 8.33301 46.833 25 68.5
s38.334 43.5 65.001 65.5s67 53.667 121 95l81.5 56.5c49.667 34.333 84.667 62.833 105 85.5s30.5 47.667 30.5 75c0 28 -11.5 51.167 -34.5 69.5s-51.5 27.5 -85.5 27.5c-37.333 0 -65 -7 -83 -21s-33.333 -34.833 -46 -62.5s-25 -48.334 -37 -62.001
s-31.333 -20.5 -58 -20.5c-22.667 0 -42 6.33301 -58 19s-24 30.667 -24 54c0 33.333 11.333 67 34 101s57.5 62 104.5 84s104.167 33 171.5 33c70 0 127.333 -10 172 -30s77.667 -46.667 99 -80s32 -69.333 32 -108c0 -43.333 -12.833 -82.5 -38.5 -117.5
s-63.667 -70.5 -114 -106.5l-132.5 -93.5c-38 -26.333 -66 -50.166 -84 -71.499h277c34 0 60.167 -6.33301 78.5 -19s27.5 -30 27.5 -52c0 -19.333 -7.5 -36.166 -22.5 -50.499s-36.833 -21.5 -65.5 -21.5zM1339 1343l-832.997 -1343
c-22.667 -36.667 -47.334 -55 -74.001 -55c-16 0 -31.667 5.83301 -47 17.5s-23 26.834 -23 45.501c0 13.333 7 30.333 21 51l840 1354c15.333 26.667 28.166 45.667 38.499 57s26.166 17 47.499 17c20 0 35.833 -5.83301 47.5 -17.5s17.5 -27.167 17.5 -46.5
c0 -16 -11.667 -42.667 -35 -80z" />
    <glyph glyph-name="threequarters" unicode="&#xbe;" horiz-adv-x="1749" 
d="M1440 76v78h-285c-82 0 -123 30.667 -123 92c0 16 4.16699 29.5 12.5 40.5s23.5 28.167 45.5 51.5l313 348c23.333 24.667 41.833 42.5 55.5 53.5s30.5 16.5 50.5 16.5c32.667 0 57.667 -8.66699 75 -26s26 -42.333 26 -75v-364h43
c27.333 0 48.166 -6.83301 62.499 -20.5s21.5 -30.167 21.5 -49.5c0 -44.667 -34.333 -67 -103 -67h-24v-78c0 -30 -7.66699 -52.167 -23 -66.5s-35.666 -21.5 -60.999 -21.5c-57.333 0 -86 29.333 -86 88zM1229 291h211v237zM1395 1343l-833.999 -1343
c-21.333 -36.667 -46 -55 -74 -55c-16 0 -31.5 6 -46.5 18s-22.5 27 -22.5 45c0 14 6.66699 31 20 51l840 1354c15.333 26.667 28.166 45.667 38.499 57s26.166 17 47.499 17c20.667 0 36.834 -5.83301 48.501 -17.5s17.5 -27.167 17.5 -46.5
c0 -7.33301 -1.5 -15.333 -4.5 -24s-7.5 -17.834 -13.5 -27.501zM293.001 1051c-21.333 0 -39.332 5.66992 -53.999 17.0029s-22 26.666 -22 45.999c0 20.667 7.83301 37.167 23.5 49.5s37.167 18.5 64.5 18.5h37c28.667 0 55 7.66699 79 23s36 37 36 65
c0 24 -9.16699 43.333 -27.5 58s-43.5 22 -75.5 22c-28 0 -50 -3.83301 -66 -11.5s-27.333 -16.667 -34 -27s-17.667 -30.5 -33 -60.5c-2.66699 -6.66699 -10.5 -13.334 -23.5 -20.001s-26.167 -10 -39.5 -10c-22 0 -40.5 7.16699 -55.5 21.5s-22.5 30.833 -22.5 49.5
c0 28.667 11.667 57 35 85s56.666 51.333 99.999 70s94 28 152 28c55.333 0 103.833 -8.66699 145.5 -26s73.834 -40.666 96.501 -69.999s34 -62.333 34 -99c0 -32 -7.66699 -59.5 -23 -82.5s-37 -46.167 -65 -69.5c41.333 -20 72.833 -45.333 94.5 -76
s32.5 -64.667 32.5 -102c0 -66.667 -30 -124.167 -90 -172.5s-138 -72.5 -234 -72.5c-62 0 -116.333 11.833 -163 35.5s-82 52.5 -106 86.5s-36 65 -36 93c0 18.667 8.33301 35.5 25 50.5s37.667 22.5 63 22.5c14 0 27.667 -3.5 41 -10.5s21.666 -15.167 24.999 -24.5
c20.667 -46 41.167 -79 61.5 -99s50.166 -30 89.499 -30c36.667 0 68.834 10.667 96.501 32s41.5 49.666 41.5 84.999c0 33.333 -11.167 60.166 -33.5 80.499s-52.833 30.5 -91.5 30.5c-9.33301 0 -16.5 -0.166992 -21.5 -0.5s-11.167 -0.833008 -18.5 -1.5
s-14.5 -1.5 -21.5 -2.5s-12.5 -1.5 -16.5 -1.5z" />
    <glyph glyph-name="questiondown" unicode="&#xbf;" horiz-adv-x="1174" 
d="M1083 -10c0 -44.667 -10.999 -91.499 -32.999 -140.499s-55.167 -94.833 -99.5 -137.5s-98.333 -76.667 -162 -102s-136.167 -38 -217.5 -38c-95.333 0 -180.166 17.833 -254.499 53.5s-131.333 84 -171 145s-59.5 127.167 -59.5 198.5
c0 41.333 6.83301 80.166 20.5 116.499s32.667 69.5 57 99.5s46.333 54 66 72l141.5 128c44 40 71.833 71.5 83.5 94.5s22.5 60.5 32.5 112.5c13.333 68 53 102 119 102c35.333 0 64.666 -11.333 87.999 -34s35 -56.334 35 -101.001c0 -44 -5.16699 -82.667 -15.5 -116
s-24.666 -63.5 -42.999 -90.5s-38 -51 -59 -72s-52.167 -49.5 -93.5 -85.5c-57.333 -50 -98 -90 -122 -120s-36 -64.667 -36 -104c0 -52 19.667 -96.333 59 -133s90 -55 152 -55c51.333 0 93.166 9.5 125.499 28.5s57.666 44.333 75.999 76s34.5 69.834 48.5 114.501
c13.333 36.667 29.5 64.667 48.5 84s46.5 29 82.5 29c38 0 69.333 -13.167 94 -39.5s37 -54.833 37 -85.5zM598.001 1085c41.333 0 76.666 -13.167 105.999 -39.5s44 -62.833 44 -109.5c0 -24.667 -7.16699 -48.667 -21.5 -72s-33.166 -42.166 -56.499 -56.499
s-47.333 -21.5 -72 -21.5c-28 0 -53.5 6.66699 -76.5 20s-41.333 31.166 -55 53.499s-20.5 47.833 -20.5 76.5c0 47.333 14.833 84 44.5 110s65.5 39 107.5 39z" />
    <glyph glyph-name="Agrave" unicode="&#xc0;" horiz-adv-x="1473" 
d="M1098 166l-70.002 184.003h-596l-70 -188c-27.333 -73.333 -50.666 -122.833 -69.999 -148.5s-51 -38.5 -95 -38.5c-37.333 0 -70.333 13.667 -99 41s-43 58.333 -43 93c0 20 3.33301 40.667 10 62s17.667 51 33 89l375 952l38.5 98.5c15 38.333 31 70.166 48 95.499
s39.333 45.833 67 61.5s61.834 23.5 102.501 23.5c41.333 0 75.833 -7.83301 103.5 -23.5s50 -35.834 67 -60.501s31.333 -51.167 43 -79.5l44.5 -113.5l383 -946c30 -72 45 -124.333 45 -157c0 -34 -14.167 -65.167 -42.5 -93.5s-62.5 -42.5 -102.5 -42.5
c-23.333 0 -43.333 4.16699 -60 12.5s-30.667 19.666 -42 33.999s-23.5 36.333 -36.5 66zM509.998 573.003h438l-221 605zM765.998 1735l45 -83.999c18 -28.667 27 -48.334 27 -59.001c0 -16.667 -14.333 -25 -43 -25c-44 0 -85 9.66699 -123 29
c-18.667 9.33301 -64.667 49 -138 119s-110 109.333 -110 118c0 10 17 15 51 15h135c39.333 0 69 -7 89 -21s42.333 -44.667 67 -92z" />
    <glyph glyph-name="Aacute" unicode="&#xc1;" horiz-adv-x="1473" 
d="M1098 166l-70.002 184.003h-596l-70 -188c-27.333 -73.333 -50.666 -122.833 -69.999 -148.5s-51 -38.5 -95 -38.5c-37.333 0 -70.333 13.667 -99 41s-43 58.333 -43 93c0 20 3.33301 40.667 10 62s17.667 51 33 89l375 952l38.5 98.5c15 38.333 31 70.166 48 95.499
s39.333 45.833 67 61.5s61.834 23.5 102.501 23.5c41.333 0 75.833 -7.83301 103.5 -23.5s50 -35.834 67 -60.501s31.333 -51.167 43 -79.5l44.5 -113.5l383 -946c30 -72 45 -124.333 45 -157c0 -34 -14.167 -65.167 -42.5 -93.5s-62.5 -42.5 -102.5 -42.5
c-23.333 0 -43.333 4.16699 -60 12.5s-30.667 19.666 -42 33.999s-23.5 36.333 -36.5 66zM509.998 573.003h438l-221 605zM763.998 1848h135.001c34 0 51 -5 51 -15c0 -5.33301 -18.667 -27 -56 -65s-75 -74.333 -113 -109s-64.333 -55.667 -79 -63
c-38 -19.333 -78.667 -29 -122 -29c-28.667 0 -43 8.33301 -43 25c0 11.333 8.66699 31 26 59l45 84c26 48.667 48.667 79.667 68 93s48.666 20 87.999 20z" />
    <glyph glyph-name="Acircumflex" unicode="&#xc2;" horiz-adv-x="1473" 
d="M1098 166l-70.002 184.003h-596l-70 -188c-27.333 -73.333 -50.666 -122.833 -69.999 -148.5s-51 -38.5 -95 -38.5c-37.333 0 -70.333 13.667 -99 41s-43 58.333 -43 93c0 20 3.33301 40.667 10 62s17.667 51 33 89l375 952l38.5 98.5c15 38.333 31 70.166 48 95.499
s39.333 45.833 67 61.5s61.834 23.5 102.501 23.5c41.333 0 75.833 -7.83301 103.5 -23.5s50 -35.834 67 -60.501s31.333 -51.167 43 -79.5l44.5 -113.5l383 -946c30 -72 45 -124.333 45 -157c0 -34 -14.167 -65.167 -42.5 -93.5s-62.5 -42.5 -102.5 -42.5
c-23.333 0 -43.333 4.16699 -60 12.5s-30.667 19.666 -42 33.999s-23.5 36.333 -36.5 66zM509.998 573.003h438l-221 605zM783.998 1643l-99.999 116.999l-100 -117c-28 -33.333 -47 -53.666 -57 -60.999s-28.667 -11 -56 -11h-80c-27.333 0 -41 4.66699 -41 14
c0 7.33301 10.333 24 31 50l111 133l32 39.5c12 15 22.5 25.667 31.5 32s22.167 11.333 39.5 15s37.333 5.5 60 5.5h56c44 0 74.167 -5.33301 90.5 -16s40.5 -36 72.5 -76l115 -135c19.333 -25.333 29 -40.333 29 -45c0 -11.333 -15 -17 -45 -17h-76
c-20 0 -35.833 2.83301 -47.5 8.5s-22.834 14.5 -33.501 26.5z" />
    <glyph glyph-name="Atilde" unicode="&#xc3;" horiz-adv-x="1473" 
d="M1098 166l-70.002 184.003h-596l-70 -188c-27.333 -73.333 -50.666 -122.833 -69.999 -148.5s-51 -38.5 -95 -38.5c-37.333 0 -70.333 13.667 -99 41s-43 58.333 -43 93c0 20 3.33301 40.667 10 62s17.667 51 33 89l375 952l38.5 98.5c15 38.333 31 70.166 48 95.499
s39.333 45.833 67 61.5s61.834 23.5 102.501 23.5c41.333 0 75.833 -7.83301 103.5 -23.5s50 -35.834 67 -60.501s31.333 -51.167 43 -79.5l44.5 -113.5l383 -946c30 -72 45 -124.333 45 -157c0 -34 -14.167 -65.167 -42.5 -93.5s-62.5 -42.5 -102.5 -42.5
c-23.333 0 -43.333 4.16699 -60 12.5s-30.667 19.666 -42 33.999s-23.5 36.333 -36.5 66zM509.998 573.003h438l-221 605zM523.998 1682c-34 0 -56.999 -22.667 -68.999 -68c-12 -39.333 -30 -59 -54 -59c-14.667 0 -27.834 6.83301 -39.501 20.5s-17.5 32.834 -17.5 57.501
c0 33.333 7.33301 65.5 22 96.5s35.167 55.667 61.5 74s54.5 27.5 84.5 27.5s57.833 -4.33301 83.5 -13s60 -22.834 103 -42.501s72.5 -32.334 88.5 -38.001s33.667 -8.5 53 -8.5s34.5 4.83301 45.5 14.5s19.5 27.167 25.5 52.5c10.667 38.667 28.667 58 54 58
c15.333 0 28.666 -7 39.999 -21s17 -33 17 -57c0 -37.333 -14.167 -79.5 -42.5 -126.5s-72.166 -70.5 -131.499 -70.5c-22.667 0 -46 3.83301 -70 11.5s-57 20.834 -99 39.501s-73.333 32 -94 40s-41 12 -61 12z" />
    <glyph glyph-name="Adieresis" unicode="&#xc4;" horiz-adv-x="1473" 
d="M1098 166l-70.002 184.003h-596l-70 -188c-27.333 -73.333 -50.666 -122.833 -69.999 -148.5s-51 -38.5 -95 -38.5c-37.333 0 -70.333 13.667 -99 41s-43 58.333 -43 93c0 20 3.33301 40.667 10 62s17.667 51 33 89l375 952l38.5 98.5c15 38.333 31 70.166 48 95.499
s39.333 45.833 67 61.5s61.834 23.5 102.501 23.5c41.333 0 75.833 -7.83301 103.5 -23.5s50 -35.834 67 -60.501s31.333 -51.167 43 -79.5l44.5 -113.5l383 -946c30 -72 45 -124.333 45 -157c0 -34 -14.167 -65.167 -42.5 -93.5s-62.5 -42.5 -102.5 -42.5
c-23.333 0 -43.333 4.16699 -60 12.5s-30.667 19.666 -42 33.999s-23.5 36.333 -36.5 66zM509.998 573.003h438l-221 605zM488.998 1590c-28.667 0 -54.5 10 -77.5 30s-34.5 47.333 -34.5 82c0 33.333 11 60.5 33 81.5s48.333 31.5 79 31.5c30 0 56.333 -9.5 79 -28.5
s34 -47.167 34 -84.5c0 -34.667 -11.333 -62 -34 -82s-49 -30 -79 -30zM878.998 1815c18.667 0 37 -5 55 -15s32 -24 42 -42s15 -36.667 15 -56c0 -34.667 -11 -62 -33 -82s-48.333 -30 -79 -30c-29.333 0 -55.5 10 -78.5 30s-34.5 47.333 -34.5 82
c0 30 11.333 56.333 34 79s49 34 79 34z" />
    <glyph glyph-name="Aring" unicode="&#xc5;" horiz-adv-x="1473" 
d="M1098 166l-70.002 184.003h-596l-70 -188c-27.333 -73.333 -50.666 -122.833 -69.999 -148.5s-51 -38.5 -95 -38.5c-37.333 0 -70.333 13.667 -99 41s-43 58.333 -43 93c0 20 3.33301 40.667 10 62s17.667 51 33 89l375 952l38.5 98.5c15 38.333 31 70.166 48 95.499
s39.333 45.833 67 61.5s61.834 23.5 102.501 23.5c41.333 0 75.833 -7.83301 103.5 -23.5s50 -35.834 67 -60.501s31.333 -51.167 43 -79.5l44.5 -113.5l383 -946c30 -72 45 -124.333 45 -157c0 -34 -14.167 -65.167 -42.5 -93.5s-62.5 -42.5 -102.5 -42.5
c-23.333 0 -43.333 4.16699 -60 12.5s-30.667 19.666 -42 33.999s-23.5 36.333 -36.5 66zM509.998 573.003h438l-221 605zM681.998 1938c56.667 0 105.333 -20.332 146 -60.999s61 -89.334 61 -146.001s-20.333 -105.334 -61 -146.001s-89.334 -61 -146.001 -61
c-38 0 -72.667 9.33301 -104 28s-56.333 43.667 -75 75s-28 66 -28 104c0 56.667 20.333 105.334 61 146.001s89.334 61 146.001 61zM681.997 1833c-29.333 0 -53.6689 -9.66797 -73.002 -29.001s-29 -43.666 -29 -72.999c0 -28.667 9.83301 -52.5 29.5 -71.5
s43.834 -28.5 72.501 -28.5c18.667 0 35.834 4.33301 51.501 13s28 20.667 37 36s13.5 32.333 13.5 51c0 14 -2.66699 27.5 -8 40.5s-12.333 23.833 -21 32.5s-19.5 15.667 -32.5 21s-26.5 8 -40.5 8z" />
    <glyph glyph-name="AE" unicode="&#xc6;" horiz-adv-x="2028" 
d="M924 352l-526.998 0.00195312l-90 -207c-22.667 -53.333 -47.834 -95 -75.501 -125s-63.834 -45 -108.501 -45c-39.333 0 -70.666 10.833 -93.999 32.5s-35 47.167 -35 76.5c0 20 1.5 37 4.5 51s6.33301 25.167 10 33.5s11.834 25.833 24.501 52.5l491 1067
c28 59.333 47.833 98.666 59.5 117.999s28.5 34.166 50.5 44.499s55 15.5 99 15.5h1061c46.667 0 81.5 -10.5 104.5 -31.5s34.5 -48.5 34.5 -82.5c0 -33.333 -11.333 -59.833 -34 -79.5s-57.667 -29.5 -105 -29.5h-584v-366h533c45.333 0 79.166 -10.333 101.499 -31
s33.5 -48 33.5 -82s-11.333 -61 -34 -81s-56.334 -30 -101.001 -30h-533v-430h605c48 0 83.833 -9.33301 107.5 -28s35.5 -45.334 35.5 -80.001c0 -35.333 -11.833 -63.333 -35.5 -84s-59.5 -31 -107.5 -31h-713c-62 0 -107.167 13.833 -135.5 41.5
s-42.5 71.834 -42.5 132.501v178zM494.002 588.002h430v665h-142z" />
    <glyph glyph-name="Ccedilla" unicode="&#xc7;" horiz-adv-x="1516" 
d="M813 -25l-5.99707 -21.9961c67.333 -11.333 119.333 -30.833 156 -58.5s55 -66.834 55 -117.501c0 -39.333 -12.667 -74.333 -38 -105s-63.5 -54.667 -114.5 -72s-112.167 -26 -183.5 -26c-35.333 0 -68.5 2 -99.5 6s-63.5 11 -97.5 21
c-4.66699 1.33301 -9.5 6.66602 -14.5 15.999s-7.5 17.666 -7.5 24.999c0 21.333 8.16699 35.833 24.5 43.5s39.5 11.5 69.5 11.5c10.667 0 19 -0.166992 25 -0.5s14.167 -0.833008 24.5 -1.5s21.5 -1.5 33.5 -2.5s22 -1.5 30 -1.5c107.333 0 161 28.667 161 86
c0 22.667 -9.5 41.334 -28.5 56.001s-44.167 22 -75.5 22c-12.667 0 -30.334 -2.16699 -53.001 -6.5s-36.334 -6.5 -41.001 -6.5c-12 0 -22.833 5.33301 -32.5 16s-14.5 23.334 -14.5 38.001c0 42 54.667 68.333 164 79c-48 4 -96.667 11.167 -146 21.5
s-94.333 25.166 -135 44.499s-79 44.666 -115 75.999c-50.667 42.667 -95.334 95.334 -134.001 158.001s-68 132.334 -88 209.001s-30 159 -30 247c0 118 17.167 223.667 51.5 317s83.5 173.166 147.5 239.499s139 116.833 225 151.5s177.667 52 275 52
c118.667 0 224.334 -23.667 317.001 -71s163.667 -105.833 213 -175.5s74 -135.5 74 -197.5c0 -34 -12 -64 -36 -90s-53 -39 -87 -39c-30 0 -55 6.83301 -75 20.5s-38.667 35.5 -56 65.5c-26 48.667 -52.167 90.834 -78.5 126.501s-61.333 65.334 -105 89.001
s-98.5 35.5 -164.5 35.5c-122 0 -219.167 -46.333 -291.5 -139s-108.5 -224.334 -108.5 -395.001c0 -114 16 -209 48 -285s77.167 -132.833 135.5 -170.5s127.166 -56.5 206.499 -56.5c90 0 166.5 25.167 229.5 75.5s103.167 109.166 120.5 176.499
c22.667 87.333 68.334 131 137.001 131c35.333 0 65.666 -12.333 90.999 -37s38 -55.334 38 -92.001s-8.66699 -78.334 -26 -125.001s-43 -92.5 -77 -137.5s-74.667 -84.5 -122 -118.5c-96 -69.333 -219.667 -105 -371 -107z" />
    <glyph glyph-name="Egrave" unicode="&#xc8;" horiz-adv-x="1366" 
d="M1126 1237h-668.999v-360h616c45.333 0 79.166 -10.167 101.499 -30.5s33.5 -47.166 33.5 -80.499s-11 -60.5 -33 -81.5s-56 -31.5 -102 -31.5h-616v-417h692c46.667 0 81.834 -10.833 105.501 -32.5s35.5 -50.5 35.5 -86.5c0 -34.667 -11.833 -62.834 -35.5 -84.501
s-58.834 -32.5 -105.501 -32.5h-807c-64.667 -0 -111.167 14.333 -139.5 43s-42.5 75 -42.5 139v1102c0 42.667 6.33301 77.5 19 104.5s32.5 46.667 59.5 59s61.5 18.5 103.5 18.5h784c47.333 0 82.5 -10.5 105.5 -31.5s34.5 -48.5 34.5 -82.5
c0 -34.667 -11.5 -62.5 -34.5 -83.5s-58.167 -31.5 -105.5 -31.5zM766.001 1735l45 -83.999c18 -28.667 27 -48.334 27 -59.001c0 -16.667 -14.333 -25 -43 -25c-44 0 -85 9.66699 -123 29c-18.667 9.33301 -64.667 49 -138 119s-110 109.333 -110 118c0 10 17 15 51 15h135
c39.333 0 69 -7 89 -21s42.333 -44.667 67 -92z" />
    <glyph glyph-name="Eacute" unicode="&#xc9;" horiz-adv-x="1366" 
d="M1126 1237h-668.999v-360h616c45.333 0 79.166 -10.167 101.499 -30.5s33.5 -47.166 33.5 -80.499s-11 -60.5 -33 -81.5s-56 -31.5 -102 -31.5h-616v-417h692c46.667 0 81.834 -10.833 105.501 -32.5s35.5 -50.5 35.5 -86.5c0 -34.667 -11.833 -62.834 -35.5 -84.501
s-58.834 -32.5 -105.501 -32.5h-807c-64.667 -0 -111.167 14.333 -139.5 43s-42.5 75 -42.5 139v1102c0 42.667 6.33301 77.5 19 104.5s32.5 46.667 59.5 59s61.5 18.5 103.5 18.5h784c47.333 0 82.5 -10.5 105.5 -31.5s34.5 -48.5 34.5 -82.5
c0 -34.667 -11.5 -62.5 -34.5 -83.5s-58.167 -31.5 -105.5 -31.5zM764.001 1848h135.001c34 0 51 -5 51 -15c0 -5.33301 -18.667 -27 -56 -65s-75 -74.333 -113 -109s-64.333 -55.667 -79 -63c-38 -19.333 -78.667 -29 -122 -29c-28.667 0 -43 8.33301 -43 25
c0 11.333 8.66699 31 26 59l45 84c26 48.667 48.667 79.667 68 93s48.666 20 87.999 20z" />
    <glyph glyph-name="Ecircumflex" unicode="&#xca;" horiz-adv-x="1366" 
d="M1126 1237h-668.999v-360h616c45.333 0 79.166 -10.167 101.499 -30.5s33.5 -47.166 33.5 -80.499s-11 -60.5 -33 -81.5s-56 -31.5 -102 -31.5h-616v-417h692c46.667 0 81.834 -10.833 105.501 -32.5s35.5 -50.5 35.5 -86.5c0 -34.667 -11.833 -62.834 -35.5 -84.501
s-58.834 -32.5 -105.501 -32.5h-807c-64.667 -0 -111.167 14.333 -139.5 43s-42.5 75 -42.5 139v1102c0 42.667 6.33301 77.5 19 104.5s32.5 46.667 59.5 59s61.5 18.5 103.5 18.5h784c47.333 0 82.5 -10.5 105.5 -31.5s34.5 -48.5 34.5 -82.5
c0 -34.667 -11.5 -62.5 -34.5 -83.5s-58.167 -31.5 -105.5 -31.5zM784.001 1643l-99.999 116.999l-100 -117c-28 -33.333 -47 -53.666 -57 -60.999s-28.667 -11 -56 -11h-80c-27.333 0 -41 4.66699 -41 14c0 7.33301 10.333 24 31 50l111 133l32 39.5
c12 15 22.5 25.667 31.5 32s22.167 11.333 39.5 15s37.333 5.5 60 5.5h56c44 0 74.167 -5.33301 90.5 -16s40.5 -36 72.5 -76l115 -135c19.333 -25.333 29 -40.333 29 -45c0 -11.333 -15 -17 -45 -17h-76c-20 0 -35.833 2.83301 -47.5 8.5s-22.834 14.5 -33.501 26.5z" />
    <glyph glyph-name="Edieresis" unicode="&#xcb;" horiz-adv-x="1366" 
d="M1126 1237h-668.999v-360h616c45.333 0 79.166 -10.167 101.499 -30.5s33.5 -47.166 33.5 -80.499s-11 -60.5 -33 -81.5s-56 -31.5 -102 -31.5h-616v-417h692c46.667 0 81.834 -10.833 105.501 -32.5s35.5 -50.5 35.5 -86.5c0 -34.667 -11.833 -62.834 -35.5 -84.501
s-58.834 -32.5 -105.501 -32.5h-807c-64.667 -0 -111.167 14.333 -139.5 43s-42.5 75 -42.5 139v1102c0 42.667 6.33301 77.5 19 104.5s32.5 46.667 59.5 59s61.5 18.5 103.5 18.5h784c47.333 0 82.5 -10.5 105.5 -31.5s34.5 -48.5 34.5 -82.5
c0 -34.667 -11.5 -62.5 -34.5 -83.5s-58.167 -31.5 -105.5 -31.5zM489.001 1590c-28.667 0 -54.5 10 -77.5 30s-34.5 47.333 -34.5 82c0 33.333 11 60.5 33 81.5s48.333 31.5 79 31.5c30 0 56.333 -9.5 79 -28.5s34 -47.167 34 -84.5c0 -34.667 -11.333 -62 -34 -82
s-49 -30 -79 -30zM879.001 1815c18.667 0 37 -5 55 -15s32 -24 42 -42s15 -36.667 15 -56c0 -34.667 -11 -62 -33 -82s-48.333 -30 -79 -30c-29.333 0 -55.5 10 -78.5 30s-34.5 47.333 -34.5 82c0 30 11.333 56.333 34 79s49 34 79 34z" />
    <glyph glyph-name="Igrave" unicode="&#xcc;" horiz-adv-x="641" 
d="M172 156l0.00195312 1155c0 60 13.667 105 41 135s62.666 45 105.999 45c44.667 0 80.834 -14.833 108.501 -44.5s41.5 -74.834 41.5 -135.501v-1155c0 -60.667 -13.833 -106 -41.5 -136s-63.834 -45 -108.501 -45c-42.667 0 -77.834 15.167 -105.501 45.5
s-41.5 75.5 -41.5 135.5zM369.002 1735l45 -83.999c18 -28.667 27 -48.334 27 -59.001c0 -16.667 -14.333 -25 -43 -25c-44 0 -85 9.66699 -123 29c-18.667 9.33301 -64.667 49 -138 119s-110 109.333 -110 118c0 10 17 15 51 15h135c39.333 0 69 -7 89 -21
s42.333 -44.667 67 -92z" />
    <glyph glyph-name="Iacute" unicode="&#xcd;" horiz-adv-x="641" 
d="M172 156l0.00195312 1155c0 60 13.667 105 41 135s62.666 45 105.999 45c44.667 0 80.834 -14.833 108.501 -44.5s41.5 -74.834 41.5 -135.501v-1155c0 -60.667 -13.833 -106 -41.5 -136s-63.834 -45 -108.501 -45c-42.667 0 -77.834 15.167 -105.501 45.5
s-41.5 75.5 -41.5 135.5zM367.002 1848h135.001c34 0 51 -5 51 -15c0 -5.33301 -18.667 -27 -56 -65s-75 -74.333 -113 -109s-64.333 -55.667 -79 -63c-38 -19.333 -78.667 -29 -122 -29c-28.667 0 -43 8.33301 -43 25c0 11.333 8.66699 31 26 59l45 84
c26 48.667 48.667 79.667 68 93s48.666 20 87.999 20z" />
    <glyph glyph-name="Icircumflex" unicode="&#xce;" horiz-adv-x="641" 
d="M172 156l0.00195312 1155c0 60 13.667 105 41 135s62.666 45 105.999 45c44.667 0 80.834 -14.833 108.501 -44.5s41.5 -74.834 41.5 -135.501v-1155c0 -60.667 -13.833 -106 -41.5 -136s-63.834 -45 -108.501 -45c-42.667 0 -77.834 15.167 -105.501 45.5
s-41.5 75.5 -41.5 135.5zM387.002 1643l-99.999 116.999l-100 -117c-28 -33.333 -47 -53.666 -57 -60.999s-28.667 -11 -56 -11h-80c-27.333 0 -41 4.66699 -41 14c0 7.33301 10.333 24 31 50l111 133l32 39.5c12 15 22.5 25.667 31.5 32s22.167 11.333 39.5 15
s37.333 5.5 60 5.5h56c44 0 74.167 -5.33301 90.5 -16s40.5 -36 72.5 -76l115 -135c19.333 -25.333 29 -40.333 29 -45c0 -11.333 -15 -17 -45 -17h-76c-20 0 -35.833 2.83301 -47.5 8.5s-22.834 14.5 -33.501 26.5z" />
    <glyph glyph-name="Idieresis" unicode="&#xcf;" horiz-adv-x="641" 
d="M172 156l0.00195312 1155c0 60 13.667 105 41 135s62.666 45 105.999 45c44.667 0 80.834 -14.833 108.501 -44.5s41.5 -74.834 41.5 -135.501v-1155c0 -60.667 -13.833 -106 -41.5 -136s-63.834 -45 -108.501 -45c-42.667 0 -77.834 15.167 -105.501 45.5
s-41.5 75.5 -41.5 135.5zM92.002 1590c-28.667 0 -54.5 10 -77.5 30s-34.5 47.333 -34.5 82c0 33.333 11 60.5 33 81.5s48.333 31.5 79 31.5c30 0 56.333 -9.5 79 -28.5s34 -47.167 34 -84.5c0 -34.667 -11.333 -62 -34 -82s-49 -30 -79 -30zM482.002 1815
c18.667 0 37 -5 55 -15s32 -24 42 -42s15 -36.667 15 -56c0 -34.667 -11 -62 -33 -82s-48.333 -30 -79 -30c-29.333 0 -55.5 10 -78.5 30s-34.5 47.333 -34.5 82c0 30 11.333 56.333 34 79s49 34 79 34z" />
    <glyph glyph-name="Eth" unicode="&#xd0;" horiz-adv-x="1516" 
d="M162 209v430.002h-43c-79.333 0 -119 31.333 -119 94s39.667 94 119 94h43v457c0 64 14.333 110.333 43 139s75 43 139 43h387c100.667 0 186.667 -9.33301 258 -28s137 -53.667 197 -105c152.667 -130.667 229 -329.334 229 -596.001c0 -134 -17.333 -249.333 -52 -346
s-90.334 -179.334 -167.001 -248.001c-58 -52 -123.667 -88.833 -197 -110.5s-161.333 -32.5 -264 -32.5h-385c-54 0 -94.667 8.16699 -122 24.5s-45.166 39.333 -53.499 69s-12.5 68.167 -12.5 115.5zM686 639.002h-227.001v-403h223c88 0 156.833 8.33301 206.5 25
s94.834 53.334 135.501 110.001c60 84 90 206.667 90 368c0 111.333 -13.167 200.666 -39.5 267.999s-61.166 117 -104.499 149s-90.333 52.5 -141 61.5s-109.334 13.5 -176.001 13.5h-194v-404h166c54 0 94 -4.83301 120 -14.5s39 -36.167 39 -79.5
c0 -29.333 -9 -52.333 -27 -69s-41.667 -25 -71 -25z" />
    <glyph glyph-name="Ntilde" unicode="&#xd1;" horiz-adv-x="1556" 
d="M547 1313l571 -864v872c0 56.667 12.167 99.167 36.5 127.5s57.166 42.5 98.499 42.5c42.667 0 76.334 -14.167 101.001 -42.5s37 -70.833 37 -127.5v-1153c0 -128.667 -53.333 -193 -160 -193c-26.667 0 -50.667 3.83301 -72 11.5s-41.333 19.834 -60 36.501
s-36 36.167 -52 58.5l-48 68.5l-557 854v-859c0 -56 -13 -98.333 -39 -127s-59.333 -43 -100 -43c-42 0 -75.667 14.5 -101 43.5s-38 71.167 -38 126.5v1131c0 48 5.33301 85.667 16 113c12.667 30 33.667 54.5 63 73.5s61 28.5 95 28.5c26.667 0 49.5 -4.33301 68.5 -13
s35.667 -20.334 50 -35.001s29 -33.667 44 -57zM579 1682c-34 0 -56.999 -22.667 -68.999 -68c-12 -39.333 -30 -59 -54 -59c-14.667 0 -27.834 6.83301 -39.501 20.5s-17.5 32.834 -17.5 57.501c0 33.333 7.33301 65.5 22 96.5s35.167 55.667 61.5 74s54.5 27.5 84.5 27.5
s57.833 -4.33301 83.5 -13s60 -22.834 103 -42.501s72.5 -32.334 88.5 -38.001s33.667 -8.5 53 -8.5s34.5 4.83301 45.5 14.5s19.5 27.167 25.5 52.5c10.667 38.667 28.667 58 54 58c15.333 0 28.666 -7 39.999 -21s17 -33 17 -57c0 -37.333 -14.167 -79.5 -42.5 -126.5
s-72.166 -70.5 -131.499 -70.5c-22.667 0 -46 3.83301 -70 11.5s-57 20.834 -99 39.501s-73.333 32 -94 40s-41 12 -61 12z" />
    <glyph glyph-name="Ograve" unicode="&#xd2;" horiz-adv-x="1622" 
d="M805 1491c152 0 282.501 -30.832 391.501 -92.499s191.5 -149.334 247.5 -263.001s84 -247.167 84 -400.5c0 -113.333 -15.333 -216.333 -46 -309s-76.667 -173 -138 -241s-136.666 -120 -225.999 -156s-191.666 -54 -306.999 -54
c-114.667 0 -217.334 18.5 -308.001 55.5s-166.334 89.167 -227.001 156.5s-106.5 148.333 -137.5 243s-46.5 197 -46.5 307c0 112.667 16.167 216 48.5 310s79.166 174 140.499 240s136 116.5 224 151.5s188 52.5 300 52.5zM1227 737.001
c0 107.333 -17.3369 200.331 -52.0039 278.998s-84.167 138.167 -148.5 178.5s-138.166 60.5 -221.499 60.5c-59.333 0 -114.166 -11.167 -164.499 -33.5s-93.666 -54.833 -129.999 -97.5s-65 -97.167 -86 -163.5s-31.5 -140.833 -31.5 -223.5
c0 -83.333 10.5 -158.666 31.5 -225.999s50.667 -123.166 89 -167.499s82.333 -77.5 132 -99.5s104.167 -33 163.5 -33c76 0 145.833 19 209.5 57s114.334 96.667 152.001 176s56.5 177 56.5 293zM923.997 1735l45 -83.999c18 -28.667 27 -48.334 27 -59.001
c0 -16.667 -14.333 -25 -43 -25c-44 0 -85 9.66699 -123 29c-18.667 9.33301 -64.667 49 -138 119s-110 109.333 -110 118c0 10 17 15 51 15h135c39.333 0 69 -7 89 -21s42.333 -44.667 67 -92z" />
    <glyph glyph-name="Oacute" unicode="&#xd3;" horiz-adv-x="1622" 
d="M805 1491c152 0 282.501 -30.832 391.501 -92.499s191.5 -149.334 247.5 -263.001s84 -247.167 84 -400.5c0 -113.333 -15.333 -216.333 -46 -309s-76.667 -173 -138 -241s-136.666 -120 -225.999 -156s-191.666 -54 -306.999 -54
c-114.667 0 -217.334 18.5 -308.001 55.5s-166.334 89.167 -227.001 156.5s-106.5 148.333 -137.5 243s-46.5 197 -46.5 307c0 112.667 16.167 216 48.5 310s79.166 174 140.499 240s136 116.5 224 151.5s188 52.5 300 52.5zM1227 737.001
c0 107.333 -17.3369 200.331 -52.0039 278.998s-84.167 138.167 -148.5 178.5s-138.166 60.5 -221.499 60.5c-59.333 0 -114.166 -11.167 -164.499 -33.5s-93.666 -54.833 -129.999 -97.5s-65 -97.167 -86 -163.5s-31.5 -140.833 -31.5 -223.5
c0 -83.333 10.5 -158.666 31.5 -225.999s50.667 -123.166 89 -167.499s82.333 -77.5 132 -99.5s104.167 -33 163.5 -33c76 0 145.833 19 209.5 57s114.334 96.667 152.001 176s56.5 177 56.5 293zM921.997 1848h135.001c34 0 51 -5 51 -15c0 -5.33301 -18.667 -27 -56 -65
s-75 -74.333 -113 -109s-64.333 -55.667 -79 -63c-38 -19.333 -78.667 -29 -122 -29c-28.667 0 -43 8.33301 -43 25c0 11.333 8.66699 31 26 59l45 84c26 48.667 48.667 79.667 68 93s48.666 20 87.999 20z" />
    <glyph glyph-name="Ocircumflex" unicode="&#xd4;" horiz-adv-x="1622" 
d="M805 1491c152 0 282.501 -30.832 391.501 -92.499s191.5 -149.334 247.5 -263.001s84 -247.167 84 -400.5c0 -113.333 -15.333 -216.333 -46 -309s-76.667 -173 -138 -241s-136.666 -120 -225.999 -156s-191.666 -54 -306.999 -54
c-114.667 0 -217.334 18.5 -308.001 55.5s-166.334 89.167 -227.001 156.5s-106.5 148.333 -137.5 243s-46.5 197 -46.5 307c0 112.667 16.167 216 48.5 310s79.166 174 140.499 240s136 116.5 224 151.5s188 52.5 300 52.5zM1227 737.001
c0 107.333 -17.3369 200.331 -52.0039 278.998s-84.167 138.167 -148.5 178.5s-138.166 60.5 -221.499 60.5c-59.333 0 -114.166 -11.167 -164.499 -33.5s-93.666 -54.833 -129.999 -97.5s-65 -97.167 -86 -163.5s-31.5 -140.833 -31.5 -223.5
c0 -83.333 10.5 -158.666 31.5 -225.999s50.667 -123.166 89 -167.499s82.333 -77.5 132 -99.5s104.167 -33 163.5 -33c76 0 145.833 19 209.5 57s114.334 96.667 152.001 176s56.5 177 56.5 293zM941.997 1643l-99.999 116.999l-100 -117
c-28 -33.333 -47 -53.666 -57 -60.999s-28.667 -11 -56 -11h-80c-27.333 0 -41 4.66699 -41 14c0 7.33301 10.333 24 31 50l111 133l32 39.5c12 15 22.5 25.667 31.5 32s22.167 11.333 39.5 15s37.333 5.5 60 5.5h56c44 0 74.167 -5.33301 90.5 -16s40.5 -36 72.5 -76
l115 -135c19.333 -25.333 29 -40.333 29 -45c0 -11.333 -15 -17 -45 -17h-76c-20 0 -35.833 2.83301 -47.5 8.5s-22.834 14.5 -33.501 26.5z" />
    <glyph glyph-name="Otilde" unicode="&#xd5;" horiz-adv-x="1622" 
d="M805 1491c152 0 282.501 -30.832 391.501 -92.499s191.5 -149.334 247.5 -263.001s84 -247.167 84 -400.5c0 -113.333 -15.333 -216.333 -46 -309s-76.667 -173 -138 -241s-136.666 -120 -225.999 -156s-191.666 -54 -306.999 -54
c-114.667 0 -217.334 18.5 -308.001 55.5s-166.334 89.167 -227.001 156.5s-106.5 148.333 -137.5 243s-46.5 197 -46.5 307c0 112.667 16.167 216 48.5 310s79.166 174 140.499 240s136 116.5 224 151.5s188 52.5 300 52.5zM1227 737.001
c0 107.333 -17.3369 200.331 -52.0039 278.998s-84.167 138.167 -148.5 178.5s-138.166 60.5 -221.499 60.5c-59.333 0 -114.166 -11.167 -164.499 -33.5s-93.666 -54.833 -129.999 -97.5s-65 -97.167 -86 -163.5s-31.5 -140.833 -31.5 -223.5
c0 -83.333 10.5 -158.666 31.5 -225.999s50.667 -123.166 89 -167.499s82.333 -77.5 132 -99.5s104.167 -33 163.5 -33c76 0 145.833 19 209.5 57s114.334 96.667 152.001 176s56.5 177 56.5 293zM681.997 1682c-34 0 -56.999 -22.667 -68.999 -68
c-12 -39.333 -30 -59 -54 -59c-14.667 0 -27.834 6.83301 -39.501 20.5s-17.5 32.834 -17.5 57.501c0 33.333 7.33301 65.5 22 96.5s35.167 55.667 61.5 74s54.5 27.5 84.5 27.5s57.833 -4.33301 83.5 -13s60 -22.834 103 -42.501s72.5 -32.334 88.5 -38.001
s33.667 -8.5 53 -8.5s34.5 4.83301 45.5 14.5s19.5 27.167 25.5 52.5c10.667 38.667 28.667 58 54 58c15.333 0 28.666 -7 39.999 -21s17 -33 17 -57c0 -37.333 -14.167 -79.5 -42.5 -126.5s-72.166 -70.5 -131.499 -70.5c-22.667 0 -46 3.83301 -70 11.5
s-57 20.834 -99 39.501s-73.333 32 -94 40s-41 12 -61 12z" />
    <glyph glyph-name="Odieresis" unicode="&#xd6;" horiz-adv-x="1622" 
d="M805 1491c152 0 282.501 -30.832 391.501 -92.499s191.5 -149.334 247.5 -263.001s84 -247.167 84 -400.5c0 -113.333 -15.333 -216.333 -46 -309s-76.667 -173 -138 -241s-136.666 -120 -225.999 -156s-191.666 -54 -306.999 -54
c-114.667 0 -217.334 18.5 -308.001 55.5s-166.334 89.167 -227.001 156.5s-106.5 148.333 -137.5 243s-46.5 197 -46.5 307c0 112.667 16.167 216 48.5 310s79.166 174 140.499 240s136 116.5 224 151.5s188 52.5 300 52.5zM1227 737.001
c0 107.333 -17.3369 200.331 -52.0039 278.998s-84.167 138.167 -148.5 178.5s-138.166 60.5 -221.499 60.5c-59.333 0 -114.166 -11.167 -164.499 -33.5s-93.666 -54.833 -129.999 -97.5s-65 -97.167 -86 -163.5s-31.5 -140.833 -31.5 -223.5
c0 -83.333 10.5 -158.666 31.5 -225.999s50.667 -123.166 89 -167.499s82.333 -77.5 132 -99.5s104.167 -33 163.5 -33c76 0 145.833 19 209.5 57s114.334 96.667 152.001 176s56.5 177 56.5 293zM646.997 1590c-28.667 0 -54.5 10 -77.5 30s-34.5 47.333 -34.5 82
c0 33.333 11 60.5 33 81.5s48.333 31.5 79 31.5c30 0 56.333 -9.5 79 -28.5s34 -47.167 34 -84.5c0 -34.667 -11.333 -62 -34 -82s-49 -30 -79 -30zM1037 1815c18.667 0 37 -5 55 -15s32 -24 42 -42s15 -36.667 15 -56c0 -34.667 -11 -62 -33 -82s-48.333 -30 -79 -30
c-29.333 0 -55.5 10 -78.5 30s-34.5 47.333 -34.5 82c0 30 11.333 56.333 34 79s49 34 79 34z" />
    <glyph glyph-name="multiply" unicode="&#xd7;" horiz-adv-x="1194" 
d="M293 238l-182 182l301 301l-303 305l186 184l303 -303l303 303l180 -182l-301 -303l303 -303l-184 -186l-305 305z" />
    <glyph glyph-name="Oslash" unicode="&#xd8;" horiz-adv-x="1622" 
d="M190 215l35.002 37.001c-44.667 65.333 -78 138.666 -100 219.999s-33 169.666 -33 264.999c0 112.667 16.167 216 48.5 310s79.166 174 140.499 240s136 116.5 224 151.5s188 52.5 300 52.5c96 0 181.667 -11.167 257 -33.5s144 -57.5 206 -105.5l26 28
c42 44 74.167 73.833 96.5 89.5s44.833 23.5 67.5 23.5c21.333 0 38.666 -7 51.999 -21s20 -33 20 -57c0 -40 -30.667 -91.667 -92 -155l-41 -43c87.333 -128.667 131 -289.334 131 -482.001c0 -113.333 -15.333 -216.333 -46 -309s-76.667 -173 -138 -241
s-136.666 -120 -225.999 -156s-191.666 -54 -306.999 -54c-189.333 0 -342.333 46.667 -459 140l-22 -27l-50.5 -53.5c-17.667 -18.333 -35.334 -32.833 -53.001 -43.5s-37.834 -16 -60.501 -16c-21.333 0 -39 7.66699 -53 23s-21 32.333 -21 51
c0 26.667 7.83301 52.334 23.5 77.001s40.5 54.334 74.5 89.001zM436.002 473.001l642.999 681.999c-31.333 30.667 -71.166 55 -119.499 73s-98.5 27 -150.5 27c-83.333 0 -156.5 -20.167 -219.5 -60.5s-111.5 -99.666 -145.5 -177.999s-51 -171.5 -51 -279.5
c0 -98.667 14.333 -186.667 43 -264zM1184 991l-641.001 -678.001c74 -68 162.667 -102 266 -102c76 0 145.833 19 209.5 57s114.334 96.667 152.001 176s56.5 177 56.5 293c0 92.667 -14.333 177.334 -43 254.001z" />
    <glyph glyph-name="Ugrave" unicode="&#xd9;" horiz-adv-x="1556" 
d="M162 606l-0.00195312 705c0 60 13.5 105 40.5 135s62.5 45 106.5 45c46 0 82.5 -15 109.5 -45s40.5 -75 40.5 -135v-721c0 -82 9.16699 -150.5 27.5 -205.5s50.833 -97.667 97.5 -128s112 -45.5 196 -45.5c116 0 198 30.833 246 92.5s72 155.167 72 280.5v727
c0 60.667 13.333 105.834 40 135.501s62.334 44.5 107.001 44.5s80.834 -14.833 108.501 -44.5s41.5 -74.834 41.5 -135.501v-705c0 -114.667 -11.167 -210.334 -33.5 -287.001s-64.5 -144 -126.5 -202c-53.333 -49.333 -115.333 -85.333 -186 -108
s-153.334 -34 -248.001 -34c-112.667 0 -209.667 12.167 -291 36.5s-147.666 62 -198.999 113s-89 116.333 -113 196s-36 174.834 -36 285.501zM820.998 1735l45 -83.999c18 -28.667 27 -48.334 27 -59.001c0 -16.667 -14.333 -25 -43 -25c-44 0 -85 9.66699 -123 29
c-18.667 9.33301 -64.667 49 -138 119s-110 109.333 -110 118c0 10 17 15 51 15h135c39.333 0 69 -7 89 -21s42.333 -44.667 67 -92z" />
    <glyph glyph-name="Uacute" unicode="&#xda;" horiz-adv-x="1556" 
d="M162 606l-0.00195312 705c0 60 13.5 105 40.5 135s62.5 45 106.5 45c46 0 82.5 -15 109.5 -45s40.5 -75 40.5 -135v-721c0 -82 9.16699 -150.5 27.5 -205.5s50.833 -97.667 97.5 -128s112 -45.5 196 -45.5c116 0 198 30.833 246 92.5s72 155.167 72 280.5v727
c0 60.667 13.333 105.834 40 135.501s62.334 44.5 107.001 44.5s80.834 -14.833 108.501 -44.5s41.5 -74.834 41.5 -135.501v-705c0 -114.667 -11.167 -210.334 -33.5 -287.001s-64.5 -144 -126.5 -202c-53.333 -49.333 -115.333 -85.333 -186 -108
s-153.334 -34 -248.001 -34c-112.667 0 -209.667 12.167 -291 36.5s-147.666 62 -198.999 113s-89 116.333 -113 196s-36 174.834 -36 285.501zM818.998 1848h135.001c34 0 51 -5 51 -15c0 -5.33301 -18.667 -27 -56 -65s-75 -74.333 -113 -109s-64.333 -55.667 -79 -63
c-38 -19.333 -78.667 -29 -122 -29c-28.667 0 -43 8.33301 -43 25c0 11.333 8.66699 31 26 59l45 84c26 48.667 48.667 79.667 68 93s48.666 20 87.999 20z" />
    <glyph glyph-name="Ucircumflex" unicode="&#xdb;" horiz-adv-x="1556" 
d="M162 606l-0.00195312 705c0 60 13.5 105 40.5 135s62.5 45 106.5 45c46 0 82.5 -15 109.5 -45s40.5 -75 40.5 -135v-721c0 -82 9.16699 -150.5 27.5 -205.5s50.833 -97.667 97.5 -128s112 -45.5 196 -45.5c116 0 198 30.833 246 92.5s72 155.167 72 280.5v727
c0 60.667 13.333 105.834 40 135.501s62.334 44.5 107.001 44.5s80.834 -14.833 108.501 -44.5s41.5 -74.834 41.5 -135.501v-705c0 -114.667 -11.167 -210.334 -33.5 -287.001s-64.5 -144 -126.5 -202c-53.333 -49.333 -115.333 -85.333 -186 -108
s-153.334 -34 -248.001 -34c-112.667 0 -209.667 12.167 -291 36.5s-147.666 62 -198.999 113s-89 116.333 -113 196s-36 174.834 -36 285.501zM838.998 1643l-99.999 116.999l-100 -117c-28 -33.333 -47 -53.666 -57 -60.999s-28.667 -11 -56 -11h-80
c-27.333 0 -41 4.66699 -41 14c0 7.33301 10.333 24 31 50l111 133l32 39.5c12 15 22.5 25.667 31.5 32s22.167 11.333 39.5 15s37.333 5.5 60 5.5h56c44 0 74.167 -5.33301 90.5 -16s40.5 -36 72.5 -76l115 -135c19.333 -25.333 29 -40.333 29 -45
c0 -11.333 -15 -17 -45 -17h-76c-20 0 -35.833 2.83301 -47.5 8.5s-22.834 14.5 -33.501 26.5z" />
    <glyph glyph-name="Udieresis" unicode="&#xdc;" horiz-adv-x="1556" 
d="M162 606l-0.00195312 705c0 60 13.5 105 40.5 135s62.5 45 106.5 45c46 0 82.5 -15 109.5 -45s40.5 -75 40.5 -135v-721c0 -82 9.16699 -150.5 27.5 -205.5s50.833 -97.667 97.5 -128s112 -45.5 196 -45.5c116 0 198 30.833 246 92.5s72 155.167 72 280.5v727
c0 60.667 13.333 105.834 40 135.501s62.334 44.5 107.001 44.5s80.834 -14.833 108.501 -44.5s41.5 -74.834 41.5 -135.501v-705c0 -114.667 -11.167 -210.334 -33.5 -287.001s-64.5 -144 -126.5 -202c-53.333 -49.333 -115.333 -85.333 -186 -108
s-153.334 -34 -248.001 -34c-112.667 0 -209.667 12.167 -291 36.5s-147.666 62 -198.999 113s-89 116.333 -113 196s-36 174.834 -36 285.501zM543.998 1590c-28.667 0 -54.5 10 -77.5 30s-34.5 47.333 -34.5 82c0 33.333 11 60.5 33 81.5s48.333 31.5 79 31.5
c30 0 56.333 -9.5 79 -28.5s34 -47.167 34 -84.5c0 -34.667 -11.333 -62 -34 -82s-49 -30 -79 -30zM933.998 1815c18.667 0 37 -5 55 -15s32 -24 42 -42s15 -36.667 15 -56c0 -34.667 -11 -62 -33 -82s-48.333 -30 -79 -30c-29.333 0 -55.5 10 -78.5 30
s-34.5 47.333 -34.5 82c0 30 11.333 56.333 34 79s49 34 79 34z" />
    <glyph glyph-name="Yacute" unicode="&#xdd;" horiz-adv-x="1280" 
d="M487 156v465l-358 555c-31.333 50 -53.5 89 -66.5 117s-19.5 52.333 -19.5 73c0 34 13.167 63.333 39.5 88s58.833 37 97.5 37c40.667 0 71.5 -11.5 92.5 -34.5s52.5 -68.833 94.5 -137.5l274 -445l277 445l42 69c11.333 18.667 23.833 36.167 37.5 52.5
s28.834 28.833 45.501 37.5s37 13 61 13c37.333 0 68.5 -12.167 93.5 -36.5s37.5 -52.5 37.5 -84.5c0 -26 -6.33301 -52 -19 -78s-34.334 -62 -65.001 -108l-367 -563v-465c0 -60.667 -14 -106 -42 -136s-63.667 -45 -107 -45c-44 0 -79.667 14.833 -107 44.5
s-41 75.167 -41 136.5zM764 1848h135.001c34 0 51 -5 51 -15c0 -5.33301 -18.667 -27 -56 -65s-75 -74.333 -113 -109s-64.333 -55.667 -79 -63c-38 -19.333 -78.667 -29 -122 -29c-28.667 0 -43 8.33301 -43 25c0 11.333 8.66699 31 26 59l45 84
c26 48.667 48.667 79.667 68 93s48.666 20 87.999 20z" />
    <glyph glyph-name="Thorn" unicode="&#xde;" horiz-adv-x="1366" 
d="M729 287h-271.999v-133c0 -59.333 -14 -104 -42 -134s-64 -45 -108 -45s-79.5 15.167 -106.5 45.5s-40.5 74.833 -40.5 133.5v1159c0 58.667 13.167 103 39.5 133s62.166 45 107.499 45c27.333 0 52.666 -6.5 75.999 -19.5s41 -30.5 53 -52.5
c10.667 -17.333 16.834 -37.5 18.501 -60.5s2.5 -60.833 2.5 -113.5v-65h272c105.333 0 190.833 -8 256.5 -24s123.5 -49 173.5 -99c40.667 -40.667 70.667 -87 90 -139s29 -111 29 -177c0 -302.667 -183 -454 -549 -454zM657.001 956h-199.999v-446h200
c68.667 0 126.667 7 174 21s83.5 37.5 108.5 70.5s37.5 76.833 37.5 131.5c0 62 -19 114.667 -57 158c-42.667 43.333 -130.334 65 -263.001 65z" />
    <glyph glyph-name="germandbls" unicode="&#xdf;" 
d="M707 1174c0 35.333 -12.665 64.166 -37.998 86.499s-60 33.5 -104 33.5c-43.333 0 -78.333 -10.833 -105 -32.5s-45.5 -53.5 -56.5 -95.5s-16.5 -92.667 -16.5 -152v-877c0 -53.333 -12.333 -93.666 -37 -120.999s-56.667 -41 -96 -41s-71.333 13.667 -96 41
s-37 67.666 -37 120.999v856c0 41.333 1.5 79 4.5 113s8.83301 67.333 17.5 100s21 62.667 37 90c38 66.667 89 115.834 153 147.501s143.333 47.5 238 47.5c86.667 0 160.167 -12.833 220.5 -38.5s105.666 -60.5 135.999 -104.5s45.5 -94 45.5 -150
c0 -34 -7.5 -71 -22.5 -111s-34.167 -76 -57.5 -108c-44 -60 -66 -110.667 -66 -152c0 -39.333 37 -91.666 111 -156.999c50.667 -45.333 90.667 -86.666 120 -123.999s51.5 -75.333 66.5 -114s22.5 -80.334 22.5 -125.001c0 -62 -15 -118.5 -45 -169.5
s-71.167 -90.833 -123.5 -119.5s-110.833 -43 -175.5 -43c-62 0 -118.167 11.667 -168.5 35s-89.833 52.166 -118.5 86.499s-43 66.5 -43 96.5c0 27.333 10.167 51.166 30.5 71.499s45.166 30.5 74.499 30.5c35.333 0 67.333 -20.667 96 -62c28 -40.667 63.333 -61 106 -61
c32.667 0 61 12.333 85 37s36 54 36 88s-15.667 71.333 -47 112s-71 78.334 -119 113.001c-50 37.333 -91.5 79.5 -124.5 126.5s-49.5 88.167 -49.5 123.5c0 60 24.667 129 74 207c48 76.667 72 141.667 72 195z" />
    <glyph glyph-name="agrave" unicode="&#xe0;" 
d="M831 129c-66 -51.333 -129.832 -89.835 -191.499 -115.502s-130.834 -38.5 -207.501 -38.5c-70 0 -131.5 13.833 -184.5 41.5s-93.833 65.167 -122.5 112.5s-43 98.666 -43 153.999c0 74.667 23.667 138.334 71 191.001s112.333 88 195 106c17.333 4 60.333 13 129 27
s127.5 26.833 176.5 38.5s102.167 25.834 159.5 42.501c-3.33301 72 -17.833 124.833 -43.5 158.5s-78.834 50.5 -159.501 50.5c-69.333 0 -121.5 -9.66699 -156.5 -29s-65 -48.333 -90 -87s-42.667 -64.167 -53 -76.5s-32.5 -18.5 -66.5 -18.5
c-30.667 0 -57.167 9.83301 -79.5 29.5s-33.5 44.834 -33.5 75.501c0 48 17 94.667 51 140s87 82.666 159 111.999s161.667 44 269 44c120 0 214.333 -14.167 283 -42.5s117.167 -73.166 145.5 -134.499s42.5 -142.666 42.5 -243.999c0 -64 -0.166992 -118.333 -0.5 -163
s-0.833008 -94.334 -1.5 -149.001c0 -51.333 8.5 -104.833 25.5 -160.5s25.5 -91.5 25.5 -107.5c0 -28 -13.167 -53.5 -39.5 -76.5s-56.166 -34.5 -89.499 -34.5c-28 0 -55.667 13.167 -83 39.5s-56.333 64.5 -87 114.5zM813.001 523.998
c-40 -14.667 -98.168 -30.167 -174.501 -46.5s-129.166 -28.333 -158.499 -36s-57.333 -22.667 -84 -45s-40 -53.5 -40 -93.5c0 -41.333 15.667 -76.5 47 -105.5s72.333 -43.5 123 -43.5c54 0 103.833 11.833 149.5 35.5s79.167 54.167 100.5 91.5
c24.667 41.333 37 109.333 37 204v39zM651 1364l45 -83.999c18 -28.667 27 -48.334 27 -59.001c0 -16.667 -14.333 -25 -43 -25c-44 0 -85 9.66699 -123 29c-18.667 9.33301 -64.667 49 -138 119s-110 109.333 -110 118c0 10 17 15 51 15h135c39.333 0 69 -7 89 -21
s42.333 -44.667 67 -92z" />
    <glyph glyph-name="aacute" unicode="&#xe1;" 
d="M831 129c-66 -51.333 -129.832 -89.835 -191.499 -115.502s-130.834 -38.5 -207.501 -38.5c-70 0 -131.5 13.833 -184.5 41.5s-93.833 65.167 -122.5 112.5s-43 98.666 -43 153.999c0 74.667 23.667 138.334 71 191.001s112.333 88 195 106c17.333 4 60.333 13 129 27
s127.5 26.833 176.5 38.5s102.167 25.834 159.5 42.501c-3.33301 72 -17.833 124.833 -43.5 158.5s-78.834 50.5 -159.501 50.5c-69.333 0 -121.5 -9.66699 -156.5 -29s-65 -48.333 -90 -87s-42.667 -64.167 -53 -76.5s-32.5 -18.5 -66.5 -18.5
c-30.667 0 -57.167 9.83301 -79.5 29.5s-33.5 44.834 -33.5 75.501c0 48 17 94.667 51 140s87 82.666 159 111.999s161.667 44 269 44c120 0 214.333 -14.167 283 -42.5s117.167 -73.166 145.5 -134.499s42.5 -142.666 42.5 -243.999c0 -64 -0.166992 -118.333 -0.5 -163
s-0.833008 -94.334 -1.5 -149.001c0 -51.333 8.5 -104.833 25.5 -160.5s25.5 -91.5 25.5 -107.5c0 -28 -13.167 -53.5 -39.5 -76.5s-56.166 -34.5 -89.499 -34.5c-28 0 -55.667 13.167 -83 39.5s-56.333 64.5 -87 114.5zM813.001 523.998
c-40 -14.667 -98.168 -30.167 -174.501 -46.5s-129.166 -28.333 -158.499 -36s-57.333 -22.667 -84 -45s-40 -53.5 -40 -93.5c0 -41.333 15.667 -76.5 47 -105.5s72.333 -43.5 123 -43.5c54 0 103.833 11.833 149.5 35.5s79.167 54.167 100.5 91.5
c24.667 41.333 37 109.333 37 204v39zM649 1477h135.001c34 0 51 -5 51 -15c0 -5.33301 -18.667 -27 -56 -65s-75 -74.333 -113 -109s-64.333 -55.667 -79 -63c-38 -19.333 -78.667 -29 -122 -29c-28.667 0 -43 8.33301 -43 25c0 11.333 8.66699 31 26 59l45 84
c26 48.667 48.667 79.667 68 93s48.666 20 87.999 20z" />
    <glyph glyph-name="acircumflex" unicode="&#xe2;" 
d="M831 129c-66 -51.333 -129.832 -89.835 -191.499 -115.502s-130.834 -38.5 -207.501 -38.5c-70 0 -131.5 13.833 -184.5 41.5s-93.833 65.167 -122.5 112.5s-43 98.666 -43 153.999c0 74.667 23.667 138.334 71 191.001s112.333 88 195 106c17.333 4 60.333 13 129 27
s127.5 26.833 176.5 38.5s102.167 25.834 159.5 42.501c-3.33301 72 -17.833 124.833 -43.5 158.5s-78.834 50.5 -159.501 50.5c-69.333 0 -121.5 -9.66699 -156.5 -29s-65 -48.333 -90 -87s-42.667 -64.167 -53 -76.5s-32.5 -18.5 -66.5 -18.5
c-30.667 0 -57.167 9.83301 -79.5 29.5s-33.5 44.834 -33.5 75.501c0 48 17 94.667 51 140s87 82.666 159 111.999s161.667 44 269 44c120 0 214.333 -14.167 283 -42.5s117.167 -73.166 145.5 -134.499s42.5 -142.666 42.5 -243.999c0 -64 -0.166992 -118.333 -0.5 -163
s-0.833008 -94.334 -1.5 -149.001c0 -51.333 8.5 -104.833 25.5 -160.5s25.5 -91.5 25.5 -107.5c0 -28 -13.167 -53.5 -39.5 -76.5s-56.166 -34.5 -89.499 -34.5c-28 0 -55.667 13.167 -83 39.5s-56.333 64.5 -87 114.5zM813.001 523.998
c-40 -14.667 -98.168 -30.167 -174.501 -46.5s-129.166 -28.333 -158.499 -36s-57.333 -22.667 -84 -45s-40 -53.5 -40 -93.5c0 -41.333 15.667 -76.5 47 -105.5s72.333 -43.5 123 -43.5c54 0 103.833 11.833 149.5 35.5s79.167 54.167 100.5 91.5
c24.667 41.333 37 109.333 37 204v39zM669 1272l-99.999 116.999l-100 -117c-28 -33.333 -47 -53.666 -57 -60.999s-28.667 -11 -56 -11h-80c-27.333 0 -41 4.66699 -41 14c0 7.33301 10.333 24 31 50l111 133l32 39.5c12 15 22.5 25.667 31.5 32s22.167 11.333 39.5 15
s37.333 5.5 60 5.5h56c44 0 74.167 -5.33301 90.5 -16s40.5 -36 72.5 -76l115 -135c19.333 -25.333 29 -40.333 29 -45c0 -11.333 -15 -17 -45 -17h-76c-20 0 -35.833 2.83301 -47.5 8.5s-22.834 14.5 -33.501 26.5z" />
    <glyph glyph-name="atilde" unicode="&#xe3;" 
d="M831 129c-66 -51.333 -129.832 -89.835 -191.499 -115.502s-130.834 -38.5 -207.501 -38.5c-70 0 -131.5 13.833 -184.5 41.5s-93.833 65.167 -122.5 112.5s-43 98.666 -43 153.999c0 74.667 23.667 138.334 71 191.001s112.333 88 195 106c17.333 4 60.333 13 129 27
s127.5 26.833 176.5 38.5s102.167 25.834 159.5 42.501c-3.33301 72 -17.833 124.833 -43.5 158.5s-78.834 50.5 -159.501 50.5c-69.333 0 -121.5 -9.66699 -156.5 -29s-65 -48.333 -90 -87s-42.667 -64.167 -53 -76.5s-32.5 -18.5 -66.5 -18.5
c-30.667 0 -57.167 9.83301 -79.5 29.5s-33.5 44.834 -33.5 75.501c0 48 17 94.667 51 140s87 82.666 159 111.999s161.667 44 269 44c120 0 214.333 -14.167 283 -42.5s117.167 -73.166 145.5 -134.499s42.5 -142.666 42.5 -243.999c0 -64 -0.166992 -118.333 -0.5 -163
s-0.833008 -94.334 -1.5 -149.001c0 -51.333 8.5 -104.833 25.5 -160.5s25.5 -91.5 25.5 -107.5c0 -28 -13.167 -53.5 -39.5 -76.5s-56.166 -34.5 -89.499 -34.5c-28 0 -55.667 13.167 -83 39.5s-56.333 64.5 -87 114.5zM813.001 523.998
c-40 -14.667 -98.168 -30.167 -174.501 -46.5s-129.166 -28.333 -158.499 -36s-57.333 -22.667 -84 -45s-40 -53.5 -40 -93.5c0 -41.333 15.667 -76.5 47 -105.5s72.333 -43.5 123 -43.5c54 0 103.833 11.833 149.5 35.5s79.167 54.167 100.5 91.5
c24.667 41.333 37 109.333 37 204v39zM409 1311c-34 0 -56.999 -22.667 -68.999 -68c-12 -39.333 -30 -59 -54 -59c-14.667 0 -27.834 6.83301 -39.501 20.5s-17.5 32.834 -17.5 57.501c0 33.333 7.33301 65.5 22 96.5s35.167 55.667 61.5 74s54.5 27.5 84.5 27.5
s57.833 -4.33301 83.5 -13s60 -22.834 103 -42.501s72.5 -32.334 88.5 -38.001s33.667 -8.5 53 -8.5s34.5 4.83301 45.5 14.5s19.5 27.167 25.5 52.5c10.667 38.667 28.667 58 54 58c15.333 0 28.666 -7 39.999 -21s17 -33 17 -57c0 -37.333 -14.167 -79.5 -42.5 -126.5
s-72.166 -70.5 -131.499 -70.5c-22.667 0 -46 3.83301 -70 11.5s-57 20.834 -99 39.501s-73.333 32 -94 40s-41 12 -61 12z" />
    <glyph glyph-name="adieresis" unicode="&#xe4;" 
d="M831 129c-66 -51.333 -129.832 -89.835 -191.499 -115.502s-130.834 -38.5 -207.501 -38.5c-70 0 -131.5 13.833 -184.5 41.5s-93.833 65.167 -122.5 112.5s-43 98.666 -43 153.999c0 74.667 23.667 138.334 71 191.001s112.333 88 195 106c17.333 4 60.333 13 129 27
s127.5 26.833 176.5 38.5s102.167 25.834 159.5 42.501c-3.33301 72 -17.833 124.833 -43.5 158.5s-78.834 50.5 -159.501 50.5c-69.333 0 -121.5 -9.66699 -156.5 -29s-65 -48.333 -90 -87s-42.667 -64.167 -53 -76.5s-32.5 -18.5 -66.5 -18.5
c-30.667 0 -57.167 9.83301 -79.5 29.5s-33.5 44.834 -33.5 75.501c0 48 17 94.667 51 140s87 82.666 159 111.999s161.667 44 269 44c120 0 214.333 -14.167 283 -42.5s117.167 -73.166 145.5 -134.499s42.5 -142.666 42.5 -243.999c0 -64 -0.166992 -118.333 -0.5 -163
s-0.833008 -94.334 -1.5 -149.001c0 -51.333 8.5 -104.833 25.5 -160.5s25.5 -91.5 25.5 -107.5c0 -28 -13.167 -53.5 -39.5 -76.5s-56.166 -34.5 -89.499 -34.5c-28 0 -55.667 13.167 -83 39.5s-56.333 64.5 -87 114.5zM813.001 523.998
c-40 -14.667 -98.168 -30.167 -174.501 -46.5s-129.166 -28.333 -158.499 -36s-57.333 -22.667 -84 -45s-40 -53.5 -40 -93.5c0 -41.333 15.667 -76.5 47 -105.5s72.333 -43.5 123 -43.5c54 0 103.833 11.833 149.5 35.5s79.167 54.167 100.5 91.5
c24.667 41.333 37 109.333 37 204v39zM374 1219c-28.667 0 -54.5 10 -77.5 30s-34.5 47.333 -34.5 82c0 33.333 11 60.5 33 81.5s48.333 31.5 79 31.5c30 0 56.333 -9.5 79 -28.5s34 -47.167 34 -84.5c0 -34.667 -11.333 -62 -34 -82s-49 -30 -79 -30zM764 1444
c18.667 0 37 -5 55 -15s32 -24 42 -42s15 -36.667 15 -56c0 -34.667 -11 -62 -33 -82s-48.333 -30 -79 -30c-29.333 0 -55.5 10 -78.5 30s-34.5 47.333 -34.5 82c0 30 11.333 56.333 34 79s49 34 79 34z" />
    <glyph glyph-name="aring" unicode="&#xe5;" 
d="M831 129c-66 -51.333 -129.832 -89.835 -191.499 -115.502s-130.834 -38.5 -207.501 -38.5c-70 0 -131.5 13.833 -184.5 41.5s-93.833 65.167 -122.5 112.5s-43 98.666 -43 153.999c0 74.667 23.667 138.334 71 191.001s112.333 88 195 106c17.333 4 60.333 13 129 27
s127.5 26.833 176.5 38.5s102.167 25.834 159.5 42.501c-3.33301 72 -17.833 124.833 -43.5 158.5s-78.834 50.5 -159.501 50.5c-69.333 0 -121.5 -9.66699 -156.5 -29s-65 -48.333 -90 -87s-42.667 -64.167 -53 -76.5s-32.5 -18.5 -66.5 -18.5
c-30.667 0 -57.167 9.83301 -79.5 29.5s-33.5 44.834 -33.5 75.501c0 48 17 94.667 51 140s87 82.666 159 111.999s161.667 44 269 44c120 0 214.333 -14.167 283 -42.5s117.167 -73.166 145.5 -134.499s42.5 -142.666 42.5 -243.999c0 -64 -0.166992 -118.333 -0.5 -163
s-0.833008 -94.334 -1.5 -149.001c0 -51.333 8.5 -104.833 25.5 -160.5s25.5 -91.5 25.5 -107.5c0 -28 -13.167 -53.5 -39.5 -76.5s-56.166 -34.5 -89.499 -34.5c-28 0 -55.667 13.167 -83 39.5s-56.333 64.5 -87 114.5zM813.001 523.998
c-40 -14.667 -98.168 -30.167 -174.501 -46.5s-129.166 -28.333 -158.499 -36s-57.333 -22.667 -84 -45s-40 -53.5 -40 -93.5c0 -41.333 15.667 -76.5 47 -105.5s72.333 -43.5 123 -43.5c54 0 103.833 11.833 149.5 35.5s79.167 54.167 100.5 91.5
c24.667 41.333 37 109.333 37 204v39zM567 1567c56.667 0 105.333 -20.332 146 -60.999s61 -89.334 61 -146.001s-20.333 -105.334 -61 -146.001s-89.334 -61 -146.001 -61c-38 0 -72.667 9.33301 -104 28s-56.333 43.667 -75 75s-28 66 -28 104
c0 56.667 20.333 105.334 61 146.001s89.334 61 146.001 61zM566.999 1462c-29.333 0 -53.6689 -9.66797 -73.002 -29.001s-29 -43.666 -29 -72.999c0 -28.667 9.83301 -52.5 29.5 -71.5s43.834 -28.5 72.501 -28.5c18.667 0 35.834 4.33301 51.501 13s28 20.667 37 36
s13.5 32.333 13.5 51c0 14 -2.66699 27.5 -8 40.5s-12.333 23.833 -21 32.5s-19.5 15.667 -32.5 21s-26.5 8 -40.5 8z" />
    <glyph glyph-name="ae" unicode="&#xe6;" horiz-adv-x="1898" 
d="M1288 1087c109.333 0 202.166 -20.3369 278.499 -61.0039s138.5 -104 186.5 -190c38 -68 57 -137 57 -207c0 -109.333 -60.667 -164 -182 -164h-567c2 -64.667 14 -119.667 36 -165s52.333 -80 91 -104s85 -36 139 -36c49.333 0 97.333 10.167 144 30.5
s81.334 44.833 104.001 73.5c32.667 40.667 57.834 67.167 75.501 79.5s36.834 18.5 57.501 18.5c61.333 0 92 -36 92 -108c0 -15.333 -8.33301 -38.5 -25 -69.5s-43.5 -62.5 -80.5 -94.5s-85.833 -59.167 -146.5 -81.5s-132.334 -33.5 -215.001 -33.5
c-68 0 -128.333 6 -181 18s-99 30.5 -139 55.5s-76.667 57.833 -110 98.5c-138 -114.667 -288 -172 -450 -172c-116 0 -206.167 29.167 -270.5 87.5s-96.5 130.5 -96.5 216.5c0 164.667 104.333 268.334 313 311.001c236 47.333 370.667 79.333 404 96v12
c0 71.333 -12.333 122.333 -37 153s-80.667 46 -168 46c-66.667 0 -116 -10.167 -148 -30.5s-59.667 -51.333 -83 -93s-41.333 -69.667 -54 -84s-38.334 -21.5 -77.001 -21.5c-33.333 0 -59.833 9.83301 -79.5 29.5s-29.5 45.834 -29.5 78.501
c0 54.667 17.5 105.834 52.5 153.501s88 85.834 159 114.501s157.5 43 259.5 43c88 0 159.833 -8.66699 215.5 -26s105.5 -48 149.5 -92c52 41.333 103.167 71.333 153.5 90s107.5 28 171.5 28zM1061 620.996l491.001 0.00195312c-6 91.333 -30.333 160.166 -73 206.499
s-99.334 69.5 -170.001 69.5c-74 0 -133.833 -26.833 -179.5 -80.5s-68.5 -116.834 -68.5 -189.501v-6zM803.001 448.998v73.001c-32.667 -10 -97 -25.833 -193 -47.5s-161.667 -43.834 -197 -66.501s-53 -58.334 -53 -107.001c0 -41.333 15.833 -76.5 47.5 -105.5
s74.834 -43.5 129.501 -43.5c50 0 96.333 11.833 139 35.5s74 54.167 94 91.5c15.333 26.667 24.666 51.334 27.999 74.001s5 54.667 5 96z" />
    <glyph glyph-name="ccedilla" unicode="&#xe7;" 
d="M655 -25l-3.99902 -20c70.667 -6 123.167 -23.667 157.5 -53s51.5 -67.666 51.5 -114.999c0 -39.333 -12.833 -73.833 -38.5 -103.5s-63.5 -52.667 -113.5 -69s-110.667 -24.5 -182 -24.5c-122.667 0 -184 23.333 -184 70c0 12.667 4.66699 23.667 14 33s20.333 14 33 14
c2.66699 0 17.334 -1.33301 44.001 -4s51 -4 73 -4c120 0 180 28.667 180 86c0 20.667 -9.16699 38.167 -27.5 52.5s-41.166 21.5 -68.499 21.5c-10.667 0 -26 -1.5 -46 -4.5s-34.667 -4.5 -44 -4.5c-16.667 0 -29.834 6.16699 -39.501 18.5s-14.5 25.5 -14.5 39.5
c0 32 47.333 55 142 69c-161.333 8.66699 -285 61.834 -371 159.501s-129 225.5 -129 383.5c0 112 21.667 211 65 297s106 152.5 188 199.5s180 70.5 294 70.5c70.667 0 135.5 -10.333 194.5 -31s109 -47.334 150 -80.001s72.333 -67.5 94 -104.5s32.5 -71.5 32.5 -103.5
c0 -32.667 -12.167 -60.334 -36.5 -83.001s-53.833 -34 -88.5 -34c-35.333 0 -65.333 17 -90 51c-41.333 60 -79.333 104.167 -114 132.5s-83.334 42.5 -146.001 42.5c-80.667 0 -145.667 -31.5 -195 -94.5s-74 -149.167 -74 -258.5c0 -51.333 6.33301 -98.5 19 -141.5
s31 -79.667 55 -110s53 -53.333 87 -69s71.333 -23.5 112 -23.5c57.333 0 102.5 11 135.5 33s64.333 55.333 94 100s52.5 75.667 68.5 93s39.667 26 71 26c32.667 0 60.167 -12.333 82.5 -37s33.5 -52 33.5 -82c0 -44.667 -17.833 -92.667 -53.5 -144
s-88.834 -95.5 -159.501 -132.5s-154.667 -57.5 -252 -61.5z" />
    <glyph glyph-name="egrave" unicode="&#xe8;" 
d="M903 463l-534 0.000976562c0.666992 -62 13.167 -116.667 37.5 -164s56.666 -83 96.999 -107s84.833 -36 133.5 -36c32.667 0 62.5 3.83301 89.5 11.5s53.167 19.667 78.5 36s48.666 33.833 69.999 52.5l83 76c14 12 34 18 60 18c28 0 50.667 -7.66699 68 -23
s26 -37 26 -65c0 -24.667 -9.66699 -53.5 -29 -86.5s-48.5 -64.667 -87.5 -95s-88 -55.5 -147 -75.5s-126.833 -30 -203.5 -30c-175.333 0 -311.666 50 -408.999 150s-146 235.667 -146 407c0 80.667 12 155.5 36 224.5s59 128.167 105 177.5s102.667 87.166 170 113.499
s142 39.5 224 39.5c106.667 0 198.167 -22.5 274.5 -67.5s133.5 -103.167 171.5 -174.5s57 -144 57 -218c0 -68.667 -19.667 -113.167 -59 -133.5s-94.666 -30.5 -165.999 -30.5zM369 618.001l495.001 0.000976562c-6.66699 93.333 -31.834 163.166 -75.501 209.499
s-101.167 69.5 -172.5 69.5c-68 0 -123.833 -23.5 -167.5 -70.5s-70.167 -116.5 -79.5 -208.5zM651.001 1364l45 -83.999c18 -28.667 27 -48.334 27 -59.001c0 -16.667 -14.333 -25 -43 -25c-44 0 -85 9.66699 -123 29c-18.667 9.33301 -64.667 49 -138 119
s-110 109.333 -110 118c0 10 17 15 51 15h135c39.333 0 69 -7 89 -21s42.333 -44.667 67 -92z" />
    <glyph glyph-name="eacute" unicode="&#xe9;" 
d="M903 463l-534 0.000976562c0.666992 -62 13.167 -116.667 37.5 -164s56.666 -83 96.999 -107s84.833 -36 133.5 -36c32.667 0 62.5 3.83301 89.5 11.5s53.167 19.667 78.5 36s48.666 33.833 69.999 52.5l83 76c14 12 34 18 60 18c28 0 50.667 -7.66699 68 -23
s26 -37 26 -65c0 -24.667 -9.66699 -53.5 -29 -86.5s-48.5 -64.667 -87.5 -95s-88 -55.5 -147 -75.5s-126.833 -30 -203.5 -30c-175.333 0 -311.666 50 -408.999 150s-146 235.667 -146 407c0 80.667 12 155.5 36 224.5s59 128.167 105 177.5s102.667 87.166 170 113.499
s142 39.5 224 39.5c106.667 0 198.167 -22.5 274.5 -67.5s133.5 -103.167 171.5 -174.5s57 -144 57 -218c0 -68.667 -19.667 -113.167 -59 -133.5s-94.666 -30.5 -165.999 -30.5zM369 618.001l495.001 0.000976562c-6.66699 93.333 -31.834 163.166 -75.501 209.499
s-101.167 69.5 -172.5 69.5c-68 0 -123.833 -23.5 -167.5 -70.5s-70.167 -116.5 -79.5 -208.5zM649.001 1477h135.001c34 0 51 -5 51 -15c0 -5.33301 -18.667 -27 -56 -65s-75 -74.333 -113 -109s-64.333 -55.667 -79 -63c-38 -19.333 -78.667 -29 -122 -29
c-28.667 0 -43 8.33301 -43 25c0 11.333 8.66699 31 26 59l45 84c26 48.667 48.667 79.667 68 93s48.666 20 87.999 20z" />
    <glyph glyph-name="ecircumflex" unicode="&#xea;" 
d="M903 463l-534 0.000976562c0.666992 -62 13.167 -116.667 37.5 -164s56.666 -83 96.999 -107s84.833 -36 133.5 -36c32.667 0 62.5 3.83301 89.5 11.5s53.167 19.667 78.5 36s48.666 33.833 69.999 52.5l83 76c14 12 34 18 60 18c28 0 50.667 -7.66699 68 -23
s26 -37 26 -65c0 -24.667 -9.66699 -53.5 -29 -86.5s-48.5 -64.667 -87.5 -95s-88 -55.5 -147 -75.5s-126.833 -30 -203.5 -30c-175.333 0 -311.666 50 -408.999 150s-146 235.667 -146 407c0 80.667 12 155.5 36 224.5s59 128.167 105 177.5s102.667 87.166 170 113.499
s142 39.5 224 39.5c106.667 0 198.167 -22.5 274.5 -67.5s133.5 -103.167 171.5 -174.5s57 -144 57 -218c0 -68.667 -19.667 -113.167 -59 -133.5s-94.666 -30.5 -165.999 -30.5zM369 618.001l495.001 0.000976562c-6.66699 93.333 -31.834 163.166 -75.501 209.499
s-101.167 69.5 -172.5 69.5c-68 0 -123.833 -23.5 -167.5 -70.5s-70.167 -116.5 -79.5 -208.5zM669.001 1272l-99.999 116.999l-100 -117c-28 -33.333 -47 -53.666 -57 -60.999s-28.667 -11 -56 -11h-80c-27.333 0 -41 4.66699 -41 14c0 7.33301 10.333 24 31 50l111 133
l32 39.5c12 15 22.5 25.667 31.5 32s22.167 11.333 39.5 15s37.333 5.5 60 5.5h56c44 0 74.167 -5.33301 90.5 -16s40.5 -36 72.5 -76l115 -135c19.333 -25.333 29 -40.333 29 -45c0 -11.333 -15 -17 -45 -17h-76c-20 0 -35.833 2.83301 -47.5 8.5
s-22.834 14.5 -33.501 26.5z" />
    <glyph glyph-name="edieresis" unicode="&#xeb;" 
d="M903 463l-534 0.000976562c0.666992 -62 13.167 -116.667 37.5 -164s56.666 -83 96.999 -107s84.833 -36 133.5 -36c32.667 0 62.5 3.83301 89.5 11.5s53.167 19.667 78.5 36s48.666 33.833 69.999 52.5l83 76c14 12 34 18 60 18c28 0 50.667 -7.66699 68 -23
s26 -37 26 -65c0 -24.667 -9.66699 -53.5 -29 -86.5s-48.5 -64.667 -87.5 -95s-88 -55.5 -147 -75.5s-126.833 -30 -203.5 -30c-175.333 0 -311.666 50 -408.999 150s-146 235.667 -146 407c0 80.667 12 155.5 36 224.5s59 128.167 105 177.5s102.667 87.166 170 113.499
s142 39.5 224 39.5c106.667 0 198.167 -22.5 274.5 -67.5s133.5 -103.167 171.5 -174.5s57 -144 57 -218c0 -68.667 -19.667 -113.167 -59 -133.5s-94.666 -30.5 -165.999 -30.5zM369 618.001l495.001 0.000976562c-6.66699 93.333 -31.834 163.166 -75.501 209.499
s-101.167 69.5 -172.5 69.5c-68 0 -123.833 -23.5 -167.5 -70.5s-70.167 -116.5 -79.5 -208.5zM374.001 1219c-28.667 0 -54.5 10 -77.5 30s-34.5 47.333 -34.5 82c0 33.333 11 60.5 33 81.5s48.333 31.5 79 31.5c30 0 56.333 -9.5 79 -28.5s34 -47.167 34 -84.5
c0 -34.667 -11.333 -62 -34 -82s-49 -30 -79 -30zM764.001 1444c18.667 0 37 -5 55 -15s32 -24 42 -42s15 -36.667 15 -56c0 -34.667 -11 -62 -33 -82s-48.333 -30 -79 -30c-29.333 0 -55.5 10 -78.5 30s-34.5 47.333 -34.5 82c0 30 11.333 56.333 34 79s49 34 79 34z" />
    <glyph glyph-name="igrave" unicode="&#xec;" horiz-adv-x="555" 
d="M414 930v-789c0 -54.667 -13 -96 -39 -124s-59 -42 -99 -42s-72.5 14.333 -97.5 43s-37.5 69.667 -37.5 123v781c0 54 12.5 94.667 37.5 122s57.5 41 97.5 41s73 -13.667 99 -41s39 -65.333 39 -114zM369 1364l45 -83.999c18 -28.667 27 -48.334 27 -59.001
c0 -16.667 -14.333 -25 -43 -25c-44 0 -85 9.66699 -123 29c-18.667 9.33301 -64.667 49 -138 119s-110 109.333 -110 118c0 10 17 15 51 15h135c39.333 0 69 -7 89 -21s42.333 -44.667 67 -92z" />
    <glyph glyph-name="iacute" unicode="&#xed;" horiz-adv-x="555" 
d="M414 930v-789c0 -54.667 -13 -96 -39 -124s-59 -42 -99 -42s-72.5 14.333 -97.5 43s-37.5 69.667 -37.5 123v781c0 54 12.5 94.667 37.5 122s57.5 41 97.5 41s73 -13.667 99 -41s39 -65.333 39 -114zM367 1477h135.001c34 0 51 -5 51 -15c0 -5.33301 -18.667 -27 -56 -65
s-75 -74.333 -113 -109s-64.333 -55.667 -79 -63c-38 -19.333 -78.667 -29 -122 -29c-28.667 0 -43 8.33301 -43 25c0 11.333 8.66699 31 26 59l45 84c26 48.667 48.667 79.667 68 93s48.666 20 87.999 20z" />
    <glyph glyph-name="icircumflex" unicode="&#xee;" horiz-adv-x="555" 
d="M414 930v-789c0 -54.667 -13 -96 -39 -124s-59 -42 -99 -42s-72.5 14.333 -97.5 43s-37.5 69.667 -37.5 123v781c0 54 12.5 94.667 37.5 122s57.5 41 97.5 41s73 -13.667 99 -41s39 -65.333 39 -114zM387 1272l-99.999 116.999l-100 -117
c-28 -33.333 -47 -53.666 -57 -60.999s-28.667 -11 -56 -11h-80c-27.333 0 -41 4.66699 -41 14c0 7.33301 10.333 24 31 50l111 133l32 39.5c12 15 22.5 25.667 31.5 32s22.167 11.333 39.5 15s37.333 5.5 60 5.5h56c44 0 74.167 -5.33301 90.5 -16s40.5 -36 72.5 -76
l115 -135c19.333 -25.333 29 -40.333 29 -45c0 -11.333 -15 -17 -45 -17h-76c-20 0 -35.833 2.83301 -47.5 8.5s-22.834 14.5 -33.501 26.5z" />
    <glyph glyph-name="idieresis" unicode="&#xef;" horiz-adv-x="555" 
d="M414 930v-789c0 -54.667 -13 -96 -39 -124s-59 -42 -99 -42s-72.5 14.333 -97.5 43s-37.5 69.667 -37.5 123v781c0 54 12.5 94.667 37.5 122s57.5 41 97.5 41s73 -13.667 99 -41s39 -65.333 39 -114zM92 1219c-28.667 0 -54.5 10 -77.5 30s-34.5 47.333 -34.5 82
c0 33.333 11 60.5 33 81.5s48.333 31.5 79 31.5c30 0 56.333 -9.5 79 -28.5s34 -47.167 34 -84.5c0 -34.667 -11.333 -62 -34 -82s-49 -30 -79 -30zM482 1444c18.667 0 37 -5 55 -15s32 -24 42 -42s15 -36.667 15 -56c0 -34.667 -11 -62 -33 -82s-48.333 -30 -79 -30
c-29.333 0 -55.5 10 -78.5 30s-34.5 47.333 -34.5 82c0 30 11.333 56.333 34 79s49 34 79 34z" />
    <glyph glyph-name="eth" unicode="&#xf0;" horiz-adv-x="1237" 
d="M807 1319l-9.99902 -5.99609c82 -78.667 150 -160.667 204 -246s94.5 -172 121.5 -260s40.5 -174.667 40.5 -260c0 -116.667 -22.833 -218.667 -68.5 -306s-109.667 -153.833 -192 -199.5s-177.833 -68.5 -286.5 -68.5c-109.333 0 -205 23.667 -287 71
s-145.333 113 -190 197s-67 181 -67 291c0 105.333 24 198.166 72 278.499s111.667 142.166 191 185.499s163.666 65 252.999 65c48 0 93 -9 135 -27c-21.333 32 -43.5 61 -66.5 87s-46.5 51 -70.5 75l-90 -49c-50.667 -30 -85.667 -45 -105 -45s-35.333 8 -48 24
s-19 32 -19 48c0 21.333 7.5 37.833 22.5 49.5s41.5 28.5 79.5 50.5l45 24c-35.333 33.333 -53 66.333 -53 99c0 24 9 45.667 27 65s42.333 29 73 29c30 0 57.333 -6.83301 82 -20.5s52.667 -31.5 84 -53.5l53 29c32 18 54.167 29.667 66.5 35s25.166 8 38.499 8
c19.333 0 35.333 -7.5 48 -22.5s19 -30.833 19 -47.5c0 -20.667 -7.16699 -36.834 -21.5 -48.501s-41.166 -28.834 -80.499 -51.501zM346.001 520.004c0 -72.667 11.832 -134.667 35.499 -186s56 -90.5 97 -117.5s86.833 -40.5 137.5 -40.5c49.333 0 94.833 13.333 136.5 40
s74.834 65.667 99.501 117s37 113 37 185c0 108 -24.5 191.667 -73.5 251s-114.833 89 -197.5 89c-80 0 -145.333 -30.5 -196 -91.5s-76 -143.167 -76 -246.5z" />
    <glyph glyph-name="ntilde" unicode="&#xf1;" horiz-adv-x="1237" 
d="M389 934v-33c48 63.333 100.5 109.833 157.5 139.5s122.5 44.5 196.5 44.5c72 0 136.333 -15.667 193 -47s99 -75.666 127 -132.999c18 -33.333 29.667 -69.333 35 -108s8 -88 8 -148v-508c0 -54.667 -12.5 -96 -37.5 -124s-57.5 -42 -97.5 -42
c-40.667 0 -73.667 14.333 -99 43s-38 69.667 -38 123v455c0 90 -12.5 158.833 -37.5 206.5s-74.833 71.5 -149.5 71.5c-48.667 0 -93 -14.5 -133 -43.5s-69.333 -68.833 -88 -119.5c-13.333 -40.667 -20 -116.667 -20 -228v-342c0 -55.333 -12.833 -96.833 -38.5 -124.5
s-58.834 -41.5 -99.501 -41.5c-39.333 0 -71.666 14.333 -96.999 43s-38 69.667 -38 123v789c0 52 11.333 90.833 34 116.5s53.667 38.5 93 38.5c24 0 45.667 -5.66699 65 -17s34.833 -28.333 46.5 -51s17.5 -50.334 17.5 -83.001zM409 1311
c-34 0 -56.999 -22.667 -68.999 -68c-12 -39.333 -30 -59 -54 -59c-14.667 0 -27.834 6.83301 -39.501 20.5s-17.5 32.834 -17.5 57.501c0 33.333 7.33301 65.5 22 96.5s35.167 55.667 61.5 74s54.5 27.5 84.5 27.5s57.833 -4.33301 83.5 -13s60 -22.834 103 -42.501
s72.5 -32.334 88.5 -38.001s33.667 -8.5 53 -8.5s34.5 4.83301 45.5 14.5s19.5 27.167 25.5 52.5c10.667 38.667 28.667 58 54 58c15.333 0 28.666 -7 39.999 -21s17 -33 17 -57c0 -37.333 -14.167 -79.5 -42.5 -126.5s-72.166 -70.5 -131.499 -70.5
c-22.667 0 -46 3.83301 -70 11.5s-57 20.834 -99 39.501s-73.333 32 -94 40s-41 12 -61 12z" />
    <glyph glyph-name="ograve" unicode="&#xf2;" horiz-adv-x="1237" 
d="M1163 530c0 -81.333 -12.6641 -156.338 -37.9971 -225.005s-62 -127.667 -110 -177s-105.333 -87.166 -172 -113.499s-141.667 -39.5 -225 -39.5c-82.667 0 -157 13.333 -223 40s-123.167 64.834 -171.5 114.501s-85 108.334 -110 176.001s-37.5 142.5 -37.5 224.5
c0 82.667 12.667 158.334 38 227.001s61.666 127.334 108.999 176.001s104.666 86.167 171.999 112.5s141.666 39.5 222.999 39.5c82.667 0 157.667 -13.333 225 -40s125 -64.667 173 -114s84.5 -108 109.5 -176s37.5 -143 37.5 -225zM889.003 529.995
c0 111.333 -24.5 197.998 -73.5 259.998s-114.833 93 -197.5 93c-53.333 0 -100.333 -13.833 -141 -41.5s-72 -68.5 -94 -122.5s-33 -117 -33 -189c0 -71.333 10.833 -133.666 32.5 -186.999s52.667 -94.166 93 -122.499s87.833 -42.5 142.5 -42.5
c82.667 0 148.5 31.167 197.5 93.5s73.5 148.5 73.5 258.5zM651.003 1363.99l45 -83.999c18 -28.667 27 -48.334 27 -59.001c0 -16.667 -14.333 -25 -43 -25c-44 0 -85 9.66699 -123 29c-18.667 9.33301 -64.667 49 -138 119s-110 109.333 -110 118c0 10 17 15 51 15h135
c39.333 0 69 -7 89 -21s42.333 -44.667 67 -92z" />
    <glyph glyph-name="oacute" unicode="&#xf3;" horiz-adv-x="1237" 
d="M1163 530c0 -81.333 -12.6641 -156.338 -37.9971 -225.005s-62 -127.667 -110 -177s-105.333 -87.166 -172 -113.499s-141.667 -39.5 -225 -39.5c-82.667 0 -157 13.333 -223 40s-123.167 64.834 -171.5 114.501s-85 108.334 -110 176.001s-37.5 142.5 -37.5 224.5
c0 82.667 12.667 158.334 38 227.001s61.666 127.334 108.999 176.001s104.666 86.167 171.999 112.5s141.666 39.5 222.999 39.5c82.667 0 157.667 -13.333 225 -40s125 -64.667 173 -114s84.5 -108 109.5 -176s37.5 -143 37.5 -225zM889.003 529.995
c0 111.333 -24.5 197.998 -73.5 259.998s-114.833 93 -197.5 93c-53.333 0 -100.333 -13.833 -141 -41.5s-72 -68.5 -94 -122.5s-33 -117 -33 -189c0 -71.333 10.833 -133.666 32.5 -186.999s52.667 -94.166 93 -122.499s87.833 -42.5 142.5 -42.5
c82.667 0 148.5 31.167 197.5 93.5s73.5 148.5 73.5 258.5zM649.003 1476.99h135.001c34 0 51 -5 51 -15c0 -5.33301 -18.667 -27 -56 -65s-75 -74.333 -113 -109s-64.333 -55.667 -79 -63c-38 -19.333 -78.667 -29 -122 -29c-28.667 0 -43 8.33301 -43 25
c0 11.333 8.66699 31 26 59l45 84c26 48.667 48.667 79.667 68 93s48.666 20 87.999 20z" />
    <glyph glyph-name="ocircumflex" unicode="&#xf4;" horiz-adv-x="1237" 
d="M1163 530c0 -81.333 -12.6641 -156.338 -37.9971 -225.005s-62 -127.667 -110 -177s-105.333 -87.166 -172 -113.499s-141.667 -39.5 -225 -39.5c-82.667 0 -157 13.333 -223 40s-123.167 64.834 -171.5 114.501s-85 108.334 -110 176.001s-37.5 142.5 -37.5 224.5
c0 82.667 12.667 158.334 38 227.001s61.666 127.334 108.999 176.001s104.666 86.167 171.999 112.5s141.666 39.5 222.999 39.5c82.667 0 157.667 -13.333 225 -40s125 -64.667 173 -114s84.5 -108 109.5 -176s37.5 -143 37.5 -225zM889.003 529.995
c0 111.333 -24.5 197.998 -73.5 259.998s-114.833 93 -197.5 93c-53.333 0 -100.333 -13.833 -141 -41.5s-72 -68.5 -94 -122.5s-33 -117 -33 -189c0 -71.333 10.833 -133.666 32.5 -186.999s52.667 -94.166 93 -122.499s87.833 -42.5 142.5 -42.5
c82.667 0 148.5 31.167 197.5 93.5s73.5 148.5 73.5 258.5zM669.003 1271.99l-99.999 116.999l-100 -117c-28 -33.333 -47 -53.666 -57 -60.999s-28.667 -11 -56 -11h-80c-27.333 0 -41 4.66699 -41 14c0 7.33301 10.333 24 31 50l111 133l32 39.5
c12 15 22.5 25.667 31.5 32s22.167 11.333 39.5 15s37.333 5.5 60 5.5h56c44 0 74.167 -5.33301 90.5 -16s40.5 -36 72.5 -76l115 -135c19.333 -25.333 29 -40.333 29 -45c0 -11.333 -15 -17 -45 -17h-76c-20 0 -35.833 2.83301 -47.5 8.5s-22.834 14.5 -33.501 26.5z" />
    <glyph glyph-name="otilde" unicode="&#xf5;" horiz-adv-x="1237" 
d="M1163 530c0 -81.333 -12.6641 -156.338 -37.9971 -225.005s-62 -127.667 -110 -177s-105.333 -87.166 -172 -113.499s-141.667 -39.5 -225 -39.5c-82.667 0 -157 13.333 -223 40s-123.167 64.834 -171.5 114.501s-85 108.334 -110 176.001s-37.5 142.5 -37.5 224.5
c0 82.667 12.667 158.334 38 227.001s61.666 127.334 108.999 176.001s104.666 86.167 171.999 112.5s141.666 39.5 222.999 39.5c82.667 0 157.667 -13.333 225 -40s125 -64.667 173 -114s84.5 -108 109.5 -176s37.5 -143 37.5 -225zM889.003 529.995
c0 111.333 -24.5 197.998 -73.5 259.998s-114.833 93 -197.5 93c-53.333 0 -100.333 -13.833 -141 -41.5s-72 -68.5 -94 -122.5s-33 -117 -33 -189c0 -71.333 10.833 -133.666 32.5 -186.999s52.667 -94.166 93 -122.499s87.833 -42.5 142.5 -42.5
c82.667 0 148.5 31.167 197.5 93.5s73.5 148.5 73.5 258.5zM409.003 1310.99c-34 0 -56.999 -22.667 -68.999 -68c-12 -39.333 -30 -59 -54 -59c-14.667 0 -27.834 6.83301 -39.501 20.5s-17.5 32.834 -17.5 57.501c0 33.333 7.33301 65.5 22 96.5s35.167 55.667 61.5 74
s54.5 27.5 84.5 27.5s57.833 -4.33301 83.5 -13s60 -22.834 103 -42.501s72.5 -32.334 88.5 -38.001s33.667 -8.5 53 -8.5s34.5 4.83301 45.5 14.5s19.5 27.167 25.5 52.5c10.667 38.667 28.667 58 54 58c15.333 0 28.666 -7 39.999 -21s17 -33 17 -57
c0 -37.333 -14.167 -79.5 -42.5 -126.5s-72.166 -70.5 -131.499 -70.5c-22.667 0 -46 3.83301 -70 11.5s-57 20.834 -99 39.501s-73.333 32 -94 40s-41 12 -61 12z" />
    <glyph glyph-name="odieresis" unicode="&#xf6;" horiz-adv-x="1237" 
d="M1163 530c0 -81.333 -12.6641 -156.338 -37.9971 -225.005s-62 -127.667 -110 -177s-105.333 -87.166 -172 -113.499s-141.667 -39.5 -225 -39.5c-82.667 0 -157 13.333 -223 40s-123.167 64.834 -171.5 114.501s-85 108.334 -110 176.001s-37.5 142.5 -37.5 224.5
c0 82.667 12.667 158.334 38 227.001s61.666 127.334 108.999 176.001s104.666 86.167 171.999 112.5s141.666 39.5 222.999 39.5c82.667 0 157.667 -13.333 225 -40s125 -64.667 173 -114s84.5 -108 109.5 -176s37.5 -143 37.5 -225zM889.003 529.995
c0 111.333 -24.5 197.998 -73.5 259.998s-114.833 93 -197.5 93c-53.333 0 -100.333 -13.833 -141 -41.5s-72 -68.5 -94 -122.5s-33 -117 -33 -189c0 -71.333 10.833 -133.666 32.5 -186.999s52.667 -94.166 93 -122.499s87.833 -42.5 142.5 -42.5
c82.667 0 148.5 31.167 197.5 93.5s73.5 148.5 73.5 258.5zM374.003 1218.99c-28.667 0 -54.5 10 -77.5 30s-34.5 47.333 -34.5 82c0 33.333 11 60.5 33 81.5s48.333 31.5 79 31.5c30 0 56.333 -9.5 79 -28.5s34 -47.167 34 -84.5c0 -34.667 -11.333 -62 -34 -82
s-49 -30 -79 -30zM764.003 1443.99c18.667 0 37 -5 55 -15s32 -24 42 -42s15 -36.667 15 -56c0 -34.667 -11 -62 -33 -82s-48.333 -30 -79 -30c-29.333 0 -55.5 10 -78.5 30s-34.5 47.333 -34.5 82c0 30 11.333 56.333 34 79s49 34 79 34z" />
    <glyph glyph-name="divide" unicode="&#xf7;" horiz-adv-x="1194" 
d="M1110 854v-262h-1026v262h1026zM598 981c-23.333 0 -45.8311 6.83301 -67.498 20.5s-39.334 31.667 -53.001 54s-20.5 44.5 -20.5 66.5c0 44.667 14 79.5 42 104.5s61 37.5 99 37.5c37.333 0 70.166 -12.667 98.499 -38s42.5 -60 42.5 -104c0 -38 -14 -71 -42 -99
s-61 -42 -99 -42zM598.002 184c-23.333 0 -45.998 7.16504 -67.998 21.498s-39.667 32.333 -53 54s-20 43.834 -20 66.501c0 44 14 78.5 42 103.5s61 37.5 99 37.5c37.333 0 70.166 -12.667 98.499 -38s42.5 -59.666 42.5 -102.999c0 -38 -13.833 -71.167 -41.5 -99.5
s-60.834 -42.5 -99.501 -42.5z" />
    <glyph glyph-name="oslash" unicode="&#xf8;" horiz-adv-x="1237" 
d="M1116 926l-50.998 -52.002c65.333 -99.333 98 -214 98 -344c0 -82 -12.5 -156.833 -37.5 -224.5s-61.667 -126.5 -110 -176.5s-106 -88.167 -173 -114.5s-141.833 -39.5 -224.5 -39.5c-66 0 -129.167 9.66699 -189.5 29s-113.166 46 -158.499 80l-37 -37
c-29.333 -29.333 -51 -50 -65 -62s-27.667 -18 -41 -18c-20 0 -36.667 6.33301 -50 19s-20 27.667 -20 45c0 20 5 37.333 15 52s28.333 35.334 55 62.001l45 45c-64 97.333 -96 210.666 -96 339.999c0 82.667 12.667 158.334 38 227.001s61.666 127.334 108.999 176.001
s104.666 86.167 171.999 112.5s141.666 39.5 222.999 39.5c68 0 131.667 -9 191 -27s112 -44.333 158 -79l49 51c21.333 21.333 38.833 37 52.5 47s29.5 15 47.5 15c16.667 0 31.5 -6.16699 44.5 -18.5s19.5 -28.833 19.5 -49.5c0 -16.667 -5.16699 -32 -15.5 -46
s-26.5 -31.333 -48.5 -52zM868.002 679.998l-427.999 -428c47.333 -49.333 106.666 -74 177.999 -74c82.667 0 148.5 31.167 197.5 93.5s73.5 148.5 73.5 258.5c0 52.667 -7 102.667 -21 150zM369.003 384.998l428 426c-48 48 -107.667 72 -179 72
c-53.333 0 -100.333 -13.833 -141 -41.5s-72 -68.5 -94 -122.5s-33 -117 -33 -189c0 -50.667 6.33301 -99 19 -145z" />
    <glyph glyph-name="ugrave" unicode="&#xf9;" horiz-adv-x="1237" 
d="M850 129l-0.00292969 34.999c-32.667 -41.333 -67 -76 -103 -104s-75.333 -48.833 -118 -62.5s-91.334 -20.5 -146.001 -20.5c-66 0 -125.167 13.667 -177.5 41s-92.833 65 -121.5 113c-34 58 -51 141.333 -51 250v541c0 54.667 12.333 95.5 37 122.5
s57.334 40.5 98.001 40.5c41.333 0 74.666 -13.667 99.999 -41s38 -68 38 -122v-437c0 -63.333 5.33301 -116.5 16 -159.5s29.834 -76.667 57.501 -101s65.167 -36.5 112.5 -36.5c46 0 89.333 13.667 130 41s70.334 63 89.001 107c15.333 38.667 23 123.334 23 254.001v332
c0 54 12.667 94.667 38 122s58.333 41 99 41s73.334 -13.5 98.001 -40.5s37 -67.833 37 -122.5v-791c0 -52 -11.833 -91 -35.5 -117s-54.167 -39 -91.5 -39s-68.166 13.5 -92.499 40.5s-36.5 64.833 -36.5 113.5zM650.997 1364l45 -83.999c18 -28.667 27 -48.334 27 -59.001
c0 -16.667 -14.333 -25 -43 -25c-44 0 -85 9.66699 -123 29c-18.667 9.33301 -64.667 49 -138 119s-110 109.333 -110 118c0 10 17 15 51 15h135c39.333 0 69 -7 89 -21s42.333 -44.667 67 -92z" />
    <glyph glyph-name="uacute" unicode="&#xfa;" horiz-adv-x="1237" 
d="M850 129l-0.00292969 34.999c-32.667 -41.333 -67 -76 -103 -104s-75.333 -48.833 -118 -62.5s-91.334 -20.5 -146.001 -20.5c-66 0 -125.167 13.667 -177.5 41s-92.833 65 -121.5 113c-34 58 -51 141.333 -51 250v541c0 54.667 12.333 95.5 37 122.5
s57.334 40.5 98.001 40.5c41.333 0 74.666 -13.667 99.999 -41s38 -68 38 -122v-437c0 -63.333 5.33301 -116.5 16 -159.5s29.834 -76.667 57.501 -101s65.167 -36.5 112.5 -36.5c46 0 89.333 13.667 130 41s70.334 63 89.001 107c15.333 38.667 23 123.334 23 254.001v332
c0 54 12.667 94.667 38 122s58.333 41 99 41s73.334 -13.5 98.001 -40.5s37 -67.833 37 -122.5v-791c0 -52 -11.833 -91 -35.5 -117s-54.167 -39 -91.5 -39s-68.166 13.5 -92.499 40.5s-36.5 64.833 -36.5 113.5zM648.997 1477h135.001c34 0 51 -5 51 -15
c0 -5.33301 -18.667 -27 -56 -65s-75 -74.333 -113 -109s-64.333 -55.667 -79 -63c-38 -19.333 -78.667 -29 -122 -29c-28.667 0 -43 8.33301 -43 25c0 11.333 8.66699 31 26 59l45 84c26 48.667 48.667 79.667 68 93s48.666 20 87.999 20z" />
    <glyph glyph-name="ucircumflex" unicode="&#xfb;" horiz-adv-x="1237" 
d="M850 129l-0.00292969 34.999c-32.667 -41.333 -67 -76 -103 -104s-75.333 -48.833 -118 -62.5s-91.334 -20.5 -146.001 -20.5c-66 0 -125.167 13.667 -177.5 41s-92.833 65 -121.5 113c-34 58 -51 141.333 -51 250v541c0 54.667 12.333 95.5 37 122.5
s57.334 40.5 98.001 40.5c41.333 0 74.666 -13.667 99.999 -41s38 -68 38 -122v-437c0 -63.333 5.33301 -116.5 16 -159.5s29.834 -76.667 57.501 -101s65.167 -36.5 112.5 -36.5c46 0 89.333 13.667 130 41s70.334 63 89.001 107c15.333 38.667 23 123.334 23 254.001v332
c0 54 12.667 94.667 38 122s58.333 41 99 41s73.334 -13.5 98.001 -40.5s37 -67.833 37 -122.5v-791c0 -52 -11.833 -91 -35.5 -117s-54.167 -39 -91.5 -39s-68.166 13.5 -92.499 40.5s-36.5 64.833 -36.5 113.5zM668.997 1272l-99.999 116.999l-100 -117
c-28 -33.333 -47 -53.666 -57 -60.999s-28.667 -11 -56 -11h-80c-27.333 0 -41 4.66699 -41 14c0 7.33301 10.333 24 31 50l111 133l32 39.5c12 15 22.5 25.667 31.5 32s22.167 11.333 39.5 15s37.333 5.5 60 5.5h56c44 0 74.167 -5.33301 90.5 -16s40.5 -36 72.5 -76
l115 -135c19.333 -25.333 29 -40.333 29 -45c0 -11.333 -15 -17 -45 -17h-76c-20 0 -35.833 2.83301 -47.5 8.5s-22.834 14.5 -33.501 26.5z" />
    <glyph glyph-name="udieresis" unicode="&#xfc;" horiz-adv-x="1237" 
d="M850 129l-0.00292969 34.999c-32.667 -41.333 -67 -76 -103 -104s-75.333 -48.833 -118 -62.5s-91.334 -20.5 -146.001 -20.5c-66 0 -125.167 13.667 -177.5 41s-92.833 65 -121.5 113c-34 58 -51 141.333 -51 250v541c0 54.667 12.333 95.5 37 122.5
s57.334 40.5 98.001 40.5c41.333 0 74.666 -13.667 99.999 -41s38 -68 38 -122v-437c0 -63.333 5.33301 -116.5 16 -159.5s29.834 -76.667 57.501 -101s65.167 -36.5 112.5 -36.5c46 0 89.333 13.667 130 41s70.334 63 89.001 107c15.333 38.667 23 123.334 23 254.001v332
c0 54 12.667 94.667 38 122s58.333 41 99 41s73.334 -13.5 98.001 -40.5s37 -67.833 37 -122.5v-791c0 -52 -11.833 -91 -35.5 -117s-54.167 -39 -91.5 -39s-68.166 13.5 -92.499 40.5s-36.5 64.833 -36.5 113.5zM373.997 1219c-28.667 0 -54.5 10 -77.5 30
s-34.5 47.333 -34.5 82c0 33.333 11 60.5 33 81.5s48.333 31.5 79 31.5c30 0 56.333 -9.5 79 -28.5s34 -47.167 34 -84.5c0 -34.667 -11.333 -62 -34 -82s-49 -30 -79 -30zM763.997 1444c18.667 0 37 -5 55 -15s32 -24 42 -42s15 -36.667 15 -56c0 -34.667 -11 -62 -33 -82
s-48.333 -30 -79 -30c-29.333 0 -55.5 10 -78.5 30s-34.5 47.333 -34.5 82c0 30 11.333 56.333 34 79s49 34 79 34z" />
    <glyph glyph-name="yacute" unicode="&#xfd;" horiz-adv-x="1110" 
d="M393 -59l24.998 61l-336 846c-20.667 48.667 -31 84 -31 106c0 23.333 6 45 18 65s28.5 36 49.5 48s42.833 18 65.5 18c39.333 0 69 -12.5 89 -37.5s37.667 -60.833 53 -107.5l231 -672l219 625c17.333 50.667 33 90.334 47 119.001s28.833 48 44.5 58
s37.834 15 66.501 15c20.667 0 40.5 -5.5 59.5 -16.5s33.667 -25.833 44 -44.5s15.5 -38.334 15.5 -59.001c-2.66699 -12.667 -7 -30.667 -13 -54s-13.333 -47 -22 -71l-356 -932c-30.667 -82 -60.667 -146.333 -90 -193s-68.166 -82.5 -116.499 -107.5
s-113.5 -37.5 -195.5 -37.5c-80 0 -140 8.66699 -180 26s-60 49 -60 95c0 31.333 9.5 55.5 28.5 72.5s47.167 25.5 84.5 25.5c14.667 0 29 -2 43 -6c17.333 -4 32.333 -6 45 -6c31.333 0 56 4.66699 74 14s34.167 25.5 48.5 48.5s30.833 56.833 49.5 101.5zM591.998 1477
h135.001c34 0 51 -5 51 -15c0 -5.33301 -18.667 -27 -56 -65s-75 -74.333 -113 -109s-64.333 -55.667 -79 -63c-38 -19.333 -78.667 -29 -122 -29c-28.667 0 -43 8.33301 -43 25c0 11.333 8.66699 31 26 59l45 84c26 48.667 48.667 79.667 68 93s48.666 20 87.999 20z" />
    <glyph glyph-name="thorn" unicode="&#xfe;" horiz-adv-x="1280" 
d="M393 1335v-436.001c51.333 63.333 104.666 109.833 159.999 139.5s118 44.5 188 44.5c84 0 161.333 -21.667 232 -65s126.5 -106.666 167.5 -189.999s61.5 -182 61.5 -296c0 -84 -11.833 -161.167 -35.5 -231.5s-56.167 -129.333 -97.5 -177
s-90.166 -84.334 -146.499 -110.001s-116.833 -38.5 -181.5 -38.5c-78 0 -143.5 15.667 -196.5 47s-103.5 77.333 -151.5 138v-410c0 -120 -43.667 -180 -131 -180c-51.333 0 -85.333 15.5 -102 46.5s-25 76.167 -25 135.5v1583c0 52.667 11.333 91.834 34 117.501
s53.667 38.5 93 38.5c38.667 0 70.167 -13 94.5 -39s36.5 -65 36.5 -117zM928 534.999c0 72 -11 133.83 -33 185.497s-52.5 91.334 -91.5 119.001s-82.167 41.5 -129.5 41.5c-75.333 0 -138.833 -29.667 -190.5 -89s-77.5 -146.666 -77.5 -261.999
c0 -108.667 25.667 -193.167 77 -253.5s115 -90.5 191 -90.5c45.333 0 87.333 13.167 126 39.5s69.667 65.833 93 118.5s35 116.334 35 191.001z" />
    <glyph glyph-name="ydieresis" unicode="&#xff;" horiz-adv-x="1110" 
d="M393 -59l24.998 61l-336 846c-20.667 48.667 -31 84 -31 106c0 23.333 6 45 18 65s28.5 36 49.5 48s42.833 18 65.5 18c39.333 0 69 -12.5 89 -37.5s37.667 -60.833 53 -107.5l231 -672l219 625c17.333 50.667 33 90.334 47 119.001s28.833 48 44.5 58
s37.834 15 66.501 15c20.667 0 40.5 -5.5 59.5 -16.5s33.667 -25.833 44 -44.5s15.5 -38.334 15.5 -59.001c-2.66699 -12.667 -7 -30.667 -13 -54s-13.333 -47 -22 -71l-356 -932c-30.667 -82 -60.667 -146.333 -90 -193s-68.166 -82.5 -116.499 -107.5
s-113.5 -37.5 -195.5 -37.5c-80 0 -140 8.66699 -180 26s-60 49 -60 95c0 31.333 9.5 55.5 28.5 72.5s47.167 25.5 84.5 25.5c14.667 0 29 -2 43 -6c17.333 -4 32.333 -6 45 -6c31.333 0 56 4.66699 74 14s34.167 25.5 48.5 48.5s30.833 56.833 49.5 101.5zM316.998 1219
c-28.667 0 -54.5 10 -77.5 30s-34.5 47.333 -34.5 82c0 33.333 11 60.5 33 81.5s48.333 31.5 79 31.5c30 0 56.333 -9.5 79 -28.5s34 -47.167 34 -84.5c0 -34.667 -11.333 -62 -34 -82s-49 -30 -79 -30zM706.998 1444c18.667 0 37 -5 55 -15s32 -24 42 -42
s15 -36.667 15 -56c0 -34.667 -11 -62 -33 -82s-48.333 -30 -79 -30c-29.333 0 -55.5 10 -78.5 30s-34.5 47.333 -34.5 82c0 30 11.333 56.333 34 79s49 34 79 34z" />
    <glyph glyph-name="dotlessi" unicode="&#x131;" horiz-adv-x="555" 
d="M414 930v-789c0 -54.667 -13 -96 -39 -124s-59 -42 -99 -42s-72.5 14.333 -97.5 43s-37.5 69.667 -37.5 123v781c0 54 12.5 94.667 37.5 122s57.5 41 97.5 41s73 -13.667 99 -41s39 -65.333 39 -114z" />
    <glyph glyph-name="OE" unicode="&#x152;" horiz-adv-x="2111" 
d="M1292 1466l605.992 -0.00195312c48 0 84.333 -10.833 109 -32.5s37 -50.167 37 -85.5s-12 -63.666 -36 -84.999s-60.667 -32 -110 -32h-546v-348h495c48.667 0 84.834 -11.167 108.501 -33.5s35.5 -50.833 35.5 -85.5c0 -35.333 -11.667 -63.666 -35 -84.999
s-59.666 -32 -108.999 -32h-495v-411h579c96 0 144 -39.667 144 -119c0 -78 -48 -117 -144 -117h-645c-72.667 0 -123.167 13.167 -151.5 39.5s-42.5 72.5 -42.5 138.5c-49.333 -69.333 -106.166 -120.5 -170.499 -153.5s-145.5 -49.5 -243.5 -49.5
c-90.667 0 -173.167 17.5 -247.5 52.5s-137.666 86 -189.999 153s-92.166 147.333 -119.499 241s-41 197.5 -41 311.5c0 117.333 13.833 223 41.5 317s67.167 173.833 118.5 239.5s113.5 115.667 186.5 150s154.167 51.5 243.5 51.5c94.667 0 174.834 -15.667 240.501 -47
s126.167 -80 181.5 -146c0.666992 46.667 8.33398 82 23.001 106s36.334 40.333 65.001 49s66 13 112 13zM1064.99 704.998v91.999c0 151.333 -29.333 265.5 -88 342.5s-142 115.5 -250 115.5c-109.333 0 -194.333 -43.333 -255 -130s-91 -212.334 -91 -377.001
c0 -90 7.66699 -168.5 23 -235.5s38.166 -123 68.499 -168s67.333 -78.5 111 -100.5s92.834 -33 147.501 -33c56.667 0 109 13.833 157 41.5s85.667 65.834 113 114.501c42.667 72.667 64 185.334 64 338.001z" />
    <glyph glyph-name="oe" unicode="&#x153;" horiz-adv-x="1962" 
d="M1370 1087c110 0 204.165 -22.499 282.498 -67.499s136.833 -102.667 175.5 -173s58 -144.166 58 -221.499c0 -108 -60.667 -162 -182 -162h-569c4 -66 17.167 -121.667 39.5 -167s52.666 -79.333 90.999 -102s83.5 -34 135.5 -34c60 0 108.667 8.83301 146 26.5
s68.5 39.334 93.5 65.001l71.5 71.5c22.667 22 45.334 33 68.001 33c26.667 0 48.334 -9 65.001 -27s25 -41 25 -69c0 -30.667 -16.333 -68.834 -49 -114.501s-83.5 -85.5 -152.5 -119.5s-152.833 -51 -251.5 -51s-179.334 13.167 -242.001 39.5s-122 68.5 -178 126.5
c-100.667 -110.667 -229.667 -166 -387 -166c-101.333 0 -192.666 23.667 -273.999 71s-144.666 113.333 -189.999 198s-68 180 -68 286c0 106.667 21.333 202.167 64 286.5s104.167 150.166 184.5 197.499s173.5 71 279.5 71c78 0 148 -12.833 210 -38.5
s120.333 -65.834 175 -120.501c52 55.333 108.333 96 169 122s130.667 39 210 39zM1133 621.001l493.001 0.00195312c-6.66699 93.333 -31 162.666 -73 207.999s-99 68 -171 68c-72.667 0 -132.334 -26.333 -179.001 -79s-70 -116.334 -70 -191.001v-6zM343.999 526.003
c0 -72 11.168 -133.999 33.501 -185.999s54.166 -92 95.499 -120s89 -42 143 -42c76.667 0 139.667 30.833 189 92.5s74 146.834 74 255.501c0 73.333 -10.833 137.166 -32.5 191.499s-52.667 95.5 -93 123.5s-87.5 42 -141.5 42c-82.667 0 -148 -32.833 -196 -98.5
s-72 -151.834 -72 -258.501z" />
    <glyph glyph-name="Scaron" unicode="&#x160;" horiz-adv-x="1366" 
d="M1274 440c0 -88.667 -22.832 -168.339 -68.499 -239.006s-112.5 -126 -200.5 -166s-192.333 -60 -313 -60c-144.667 0 -264 27.333 -358 82c-66.667 39.333 -120.834 91.833 -162.501 157.5s-62.5 129.5 -62.5 191.5c0 36 12.5 66.833 37.5 92.5s56.833 38.5 95.5 38.5
c31.333 0 57.833 -10 79.5 -30s40.167 -49.667 55.5 -89c18.667 -46.667 38.834 -85.667 60.501 -117s52.167 -57.166 91.5 -77.499s91 -30.5 155 -30.5c88 0 159.5 20.5 214.5 61.5s82.5 92.167 82.5 153.5c0 48.667 -14.833 88.167 -44.5 118.5s-68 53.5 -115 69.5
s-109.833 33 -188.5 51c-105.333 24.667 -193.5 53.5 -264.5 86.5s-127.333 78 -169 135s-62.5 127.833 -62.5 212.5c0 80.667 22 152.334 66 215.001s107.667 110.834 191 144.501s181.333 50.5 294 50.5c90 0 167.833 -11.167 233.5 -33.5s120.167 -52 163.5 -89
s75 -75.833 95 -116.5s30 -80.334 30 -119.001c0 -35.333 -12.5 -67.166 -37.5 -95.499s-56.167 -42.5 -93.5 -42.5c-34 0 -59.833 8.5 -77.5 25.5s-36.834 44.833 -57.501 83.5c-26.667 55.333 -58.667 98.5 -96 129.5s-97.333 46.5 -180 46.5
c-76.667 0 -138.5 -16.833 -185.5 -50.5s-70.5 -74.167 -70.5 -121.5c0 -29.333 8 -54.666 24 -75.999s38 -39.666 66 -54.999s56.333 -27.333 85 -36s76 -21.334 142 -38.001c82.667 -19.333 157.5 -40.666 224.5 -63.999s124 -51.666 171 -84.999s83.667 -75.5 110 -126.5
s39.5 -113.5 39.5 -187.5zM584.001 1788l99.999 -116.998l98 117c28 33.333 47.167 53.666 57.5 60.999s29.5 11 57.5 11h80c27.333 0 41 -4.66699 41 -14c0 -7.33301 -10.333 -24 -31 -50l-110 -133l-37.5 -45c-8.33301 -10 -18.166 -18.833 -29.499 -26.5
s-24.833 -13 -40.5 -16s-34.5 -4.5 -56.5 -4.5h-56c-30 0 -53.5 2.83301 -70.5 8.5s-29.333 12.5 -37 20.5s-26.167 29 -55.5 63l-115 135c-19.333 25.333 -29 41.333 -29 48c0 8 2.5 12.333 7.5 13s16.833 1 35.5 1h78c28 0 47.5 -4.33301 58.5 -13
s29.167 -28.334 54.5 -59.001z" />
    <glyph glyph-name="scaron" unicode="&#x161;" horiz-adv-x="1110" 
d="M1020 332c0 -75.333 -18.3359 -139.83 -55.0029 -193.497s-90.834 -94.334 -162.501 -122.001s-158.834 -41.5 -261.501 -41.5c-98 0 -182 15 -252 45s-121.667 67.5 -155 112.5s-50 90.167 -50 135.5c0 30 10.667 55.667 32 77s48.333 32 81 32
c28.667 0 50.667 -7 66 -21s30 -33.667 44 -59c28 -48.667 61.5 -85 100.5 -109s92.167 -36 159.5 -36c54.667 0 99.5 12.167 134.5 36.5s52.5 52.166 52.5 83.499c0 48 -18.167 83 -54.5 105s-96.166 43 -179.499 63c-94 23.333 -170.5 47.833 -229.5 73.5
s-106.167 59.5 -141.5 101.5s-53 93.667 -53 155c0 54.667 16.333 106.334 49 155.001s80.834 87.5 144.501 116.5s140.5 43.5 230.5 43.5c70.667 0 134.167 -7.33301 190.5 -22s103.333 -34.334 141 -59.001s66.334 -52 86.001 -82s29.5 -59.333 29.5 -88
c0 -31.333 -10.5 -57 -31.5 -77s-50.833 -30 -89.5 -30c-28 0 -51.833 8 -71.5 24s-42.167 40 -67.5 72c-20.667 26.667 -45 48 -73 64s-66 24 -114 24c-49.333 0 -90.333 -10.5 -123 -31.5s-49 -47.167 -49 -78.5c0 -28.667 12 -52.167 36 -70.5s56.333 -33.5 97 -45.5
s96.667 -26.667 168 -44c84.667 -20.667 153.834 -45.334 207.501 -74.001s94.334 -62.5 122.001 -101.5s41.5 -83.5 41.5 -133.5zM411.997 1417l99.999 -116.998l98 117c28 33.333 47.167 53.666 57.5 60.999s29.5 11 57.5 11h80c27.333 0 41 -4.66699 41 -14
c0 -7.33301 -10.333 -24 -31 -50l-110 -133l-37.5 -45c-8.33301 -10 -18.166 -18.833 -29.499 -26.5s-24.833 -13 -40.5 -16s-34.5 -4.5 -56.5 -4.5h-56c-30 0 -53.5 2.83301 -70.5 8.5s-29.333 12.5 -37 20.5s-26.167 29 -55.5 63l-115 135
c-19.333 25.333 -29 41.333 -29 48c0 8 2.5 12.333 7.5 13s16.833 1 35.5 1h78c28 0 47.5 -4.33301 58.5 -13s29.167 -28.334 54.5 -59.001z" />
    <glyph glyph-name="Ydieresis" unicode="&#x178;" horiz-adv-x="1280" 
d="M487 156v465l-358 555c-31.333 50 -53.5 89 -66.5 117s-19.5 52.333 -19.5 73c0 34 13.167 63.333 39.5 88s58.833 37 97.5 37c40.667 0 71.5 -11.5 92.5 -34.5s52.5 -68.833 94.5 -137.5l274 -445l277 445l42 69c11.333 18.667 23.833 36.167 37.5 52.5
s28.834 28.833 45.501 37.5s37 13 61 13c37.333 0 68.5 -12.167 93.5 -36.5s37.5 -52.5 37.5 -84.5c0 -26 -6.33301 -52 -19 -78s-34.334 -62 -65.001 -108l-367 -563v-465c0 -60.667 -14 -106 -42 -136s-63.667 -45 -107 -45c-44 0 -79.667 14.833 -107 44.5
s-41 75.167 -41 136.5zM489 1590c-28.667 0 -54.5 10 -77.5 30s-34.5 47.333 -34.5 82c0 33.333 11 60.5 33 81.5s48.333 31.5 79 31.5c30 0 56.333 -9.5 79 -28.5s34 -47.167 34 -84.5c0 -34.667 -11.333 -62 -34 -82s-49 -30 -79 -30zM879 1815c18.667 0 37 -5 55 -15
s32 -24 42 -42s15 -36.667 15 -56c0 -34.667 -11 -62 -33 -82s-48.333 -30 -79 -30c-29.333 0 -55.5 10 -78.5 30s-34.5 47.333 -34.5 82c0 30 11.333 56.333 34 79s49 34 79 34z" />
    <glyph glyph-name="florin" unicode="&#x192;" 
d="M440 778l52.002 -0.00292969l57 316c14 74 27 131.333 39 172s31.167 78.667 57.5 114s62.666 62.333 108.999 81s106.166 28 179.499 28c76.667 0 137.5 -10.167 182.5 -30.5s67.5 -51.166 67.5 -92.499c0 -42 -13.833 -68 -41.5 -78s-66.334 -10.833 -116.001 -2.5
s-75.834 12.5 -78.501 12.5c-35.333 0 -62.166 -9 -80.499 -27s-32.666 -44.333 -42.999 -79s-22.833 -97.167 -37.5 -187.5s-27.667 -165.833 -39 -226.5h63c47.333 0 84.166 -6.16699 110.499 -18.5s39.5 -38.166 39.5 -77.499c0 -36.667 -13.667 -62.5 -41 -77.5
s-68.333 -22.5 -123 -22.5h-84l-109 -627c-10 -60.667 -22.5 -113.667 -37.5 -159s-36 -84.666 -63 -117.999s-63.167 -59.333 -108.5 -78s-102.666 -28 -171.999 -28c-78.667 0 -140.667 10.333 -186 31s-68 50 -68 88c0 26.667 9.16699 48.334 27.5 65.001
s43.5 25 75.5 25c6 0 23.167 -3.16699 51.5 -9.5s51.5 -9.5 69.5 -9.5c53.333 0 89.5 14.5 108.5 43.5s34.5 76.833 46.5 143.5l109 633h-39c-49.333 0 -87.333 6.66699 -114 20s-40 36.666 -40 69.999c0 40.667 15.167 68.5 45.5 83.5s73.833 22.5 130.5 22.5z" />
    <glyph glyph-name="circumflex" unicode="&#x2c6;" horiz-adv-x="682" 
d="M442 1272l-99.999 116.999l-100 -117c-28 -33.333 -47 -53.666 -57 -60.999s-28.667 -11 -56 -11h-80c-27.333 0 -41 4.66699 -41 14c0 7.33301 10.333 24 31 50l111 133l32 39.5c12 15 22.5 25.667 31.5 32s22.167 11.333 39.5 15s37.333 5.5 60 5.5h56
c44 0 74.167 -5.33301 90.5 -16s40.5 -36 72.5 -76l115 -135c19.333 -25.333 29 -40.333 29 -45c0 -11.333 -15 -17 -45 -17h-76c-20 0 -35.833 2.83301 -47.5 8.5s-22.834 14.5 -33.501 26.5z" />
    <glyph glyph-name="caron" unicode="&#x2c7;" horiz-adv-x="682" 
d="M242 1417l99.999 -116.998l98 117c28 33.333 47.167 53.666 57.5 60.999s29.5 11 57.5 11h80c27.333 0 41 -4.66699 41 -14c0 -7.33301 -10.333 -24 -31 -50l-110 -133l-37.5 -45c-8.33301 -10 -18.166 -18.833 -29.499 -26.5s-24.833 -13 -40.5 -16
s-34.5 -4.5 -56.5 -4.5h-56c-30 0 -53.5 2.83301 -70.5 8.5s-29.333 12.5 -37 20.5s-26.167 29 -55.5 63l-115 135c-19.333 25.333 -29 41.333 -29 48c0 8 2.5 12.333 7.5 13s16.833 1 35.5 1h78c28 0 47.5 -4.33301 58.5 -13s29.167 -28.334 54.5 -59.001z" />
    <glyph glyph-name="macron" unicode="&#x2c9;" horiz-adv-x="682" 
d="M702 1264h-725v139h725v-139z" />
    <glyph glyph-name="breve" unicode="&#x2d8;" horiz-adv-x="682" 
d="M344 1341c49.333 0 90.8311 12.6699 124.498 38.0029s54.834 60 63.501 104c9.33301 43.333 29.333 65 60 65c18 0 32.667 -6.5 44 -19.5s17 -28.833 17 -47.5c0 -42.667 -12.667 -85.334 -38 -128.001s-61.5 -77.834 -108.5 -105.501s-100.5 -41.5 -160.5 -41.5
c-90 0 -165.333 29 -226 87s-91 120.667 -91 188c0 16.667 6 32 18 46s26.333 21 43 21c28.667 0 49.334 -23 62.001 -69c10.667 -42.667 33 -76.334 67 -101.001s75.667 -37 125 -37z" />
    <glyph glyph-name="dotaccent" unicode="&#x2d9;" horiz-adv-x="682" 
d="M342 1444c19.333 0 37.668 -5 55.001 -15s31.333 -23.833 42 -41.5s16 -36.5 16 -56.5c0 -47.333 -18.833 -80.333 -56.5 -99s-75.334 -18.667 -113.001 0s-56.5 51.667 -56.5 99c0 30.667 11.167 57.167 33.5 79.5s48.833 33.5 79.5 33.5z" />
    <glyph glyph-name="ring" unicode="&#x2da;" horiz-adv-x="682" 
d="M340 1567c56.667 0 105.333 -20.332 146 -60.999s61 -89.334 61 -146.001s-20.333 -105.334 -61 -146.001s-89.334 -61 -146.001 -61c-38 0 -72.667 9.33301 -104 28s-56.333 43.667 -75 75s-28 66 -28 104c0 56.667 20.333 105.334 61 146.001s89.334 61 146.001 61z
M339.999 1462c-29.333 0 -53.6689 -9.66797 -73.002 -29.001s-29 -43.666 -29 -72.999c0 -28.667 9.83301 -52.5 29.5 -71.5s43.834 -28.5 72.501 -28.5c18.667 0 35.834 4.33301 51.501 13s28 20.667 37 36s13.5 32.333 13.5 51c0 14 -2.66699 27.5 -8 40.5
s-12.333 23.833 -21 32.5s-19.5 15.667 -32.5 21s-26.5 8 -40.5 8z" />
    <glyph glyph-name="ogonek" unicode="&#x2db;" horiz-adv-x="682" 
d="M94 -190c0 35.333 12.333 72.166 37 110.499s53.5 70.333 86.5 96s60.833 38.5 83.5 38.5c20 0 37.667 -8.5 53 -25.5s23 -34.5 23 -52.5c0 -13.333 -3.33301 -24.5 -10 -33.5s-17.667 -22.167 -33 -39.5c-28.667 -28.667 -43 -52.667 -43 -72
c0 -31.333 23.667 -47 71 -47c14.667 0 40.834 5.83301 78.501 17.5s63.5 17.5 77.5 17.5c20.667 0 37.5 -7.16699 50.5 -21.5s19.5 -30.5 19.5 -48.5c0 -24.667 -13.333 -46.167 -40 -64.5s-61.334 -32.333 -104.001 -42s-82 -14.5 -118 -14.5
c-46 0 -86.5 7.16699 -121.5 21.5s-62.167 35.333 -81.5 63s-29 59.834 -29 96.501z" />
    <glyph glyph-name="tilde" unicode="&#x2dc;" horiz-adv-x="682" 
d="M182 1311c-34 0 -56.999 -22.667 -68.999 -68c-12 -39.333 -30 -59 -54 -59c-14.667 0 -27.834 6.83301 -39.501 20.5s-17.5 32.834 -17.5 57.501c0 33.333 7.33301 65.5 22 96.5s35.167 55.667 61.5 74s54.5 27.5 84.5 27.5s57.833 -4.33301 83.5 -13
s60 -22.834 103 -42.501s72.5 -32.334 88.5 -38.001s33.667 -8.5 53 -8.5s34.5 4.83301 45.5 14.5s19.5 27.167 25.5 52.5c10.667 38.667 28.667 58 54 58c15.333 0 28.666 -7 39.999 -21s17 -33 17 -57c0 -37.333 -14.167 -79.5 -42.5 -126.5s-72.166 -70.5 -131.499 -70.5
c-22.667 0 -46 3.83301 -70 11.5s-57 20.834 -99 39.501s-73.333 32 -94 40s-41 12 -61 12z" />
    <glyph glyph-name="hungarumlaut" unicode="&#x2dd;" horiz-adv-x="682" 
d="M313 1477h136c34 0 51 -5 51 -15c0 -6.66699 -20.667 -30.667 -62 -72s-96.666 -92.333 -165.999 -153c-11.333 -9.33301 -32.333 -18.5 -63 -27.5s-57.334 -13.5 -80.001 -13.5c-28.667 0 -43 8.33301 -43 25c0 13.333 9 33 27 59l45 84
c27.333 48.667 50.5 79.667 69.5 93s47.5 20 85.5 20zM670 1477l135.001 0.000976562c34 0 51 -5 51 -15c0 -6.66699 -22 -32 -66 -76s-97.667 -93.667 -161 -149c-10.667 -9.33301 -31.667 -18.5 -63 -27.5s-58.333 -13.5 -81 -13.5c-28.667 0 -43 8.33301 -43 25
c0 5.33301 1.33301 11.166 4 17.499s5.66699 12.333 9 18l14 23.5l45 84c18 32.667 34 57 48 73s29.167 26.667 45.5 32s37.166 8 62.499 8z" />
    <glyph glyph-name="pi" unicode="&#x3c0;" horiz-adv-x="1124" 
d="M686 821l-230.999 -0.00292969c-11.333 -134 -22.333 -243.833 -33 -329.5s-21 -159.334 -31 -221.001s-20.333 -117.834 -31 -168.501c-8.66699 -39.333 -21.334 -70.166 -38.001 -92.499s-41.334 -37.833 -74.001 -46.5
c-26.667 -6.66699 -53.167 -1.33398 -79.5 15.999s-42.166 38 -47.499 62c-4 18 -5 33.167 -3 45.5s5.66699 23.833 11 34.5s11.333 20.334 18 29.001l21 26c2 2.66699 13.5 16.334 34.5 41.001s36.833 47.167 47.5 67.5s17.334 42.833 20.001 67.5l60 469h-97
c-27.333 0 -53.333 -6.5 -78 -19.5s-43.667 -28.167 -57 -45.5l-43 -64h-35l35 93.5c14 36.333 33.333 71.5 58 105.5c19.333 28.667 45.333 53.5 78 74.5s70.667 31.5 114 31.5h764v-176h-258c-16.667 -159.333 -25 -319.666 -25 -480.999c0 -29.333 5 -58 15 -86
s22.333 -49.333 37 -64c18.667 -17.333 41.5 -28.5 68.5 -33.5s54.5 3.5 82.5 25.5c15.333 12 26.5 25.667 33.5 41s11.5 30 13.5 44l6 42h43c-0.666992 -55.333 -9 -105.166 -25 -149.499s-35 -80 -57 -107s-43.667 -46.5 -65 -58.5c-24 -14.667 -52 -23.5 -84 -26.5
s-61.333 4.5 -88 22.5c-44 32 -77.333 82.333 -100 151c-12.667 40 -19.834 92.833 -21.501 158.5s0.5 129.834 6.5 192.501z" />
    <glyph glyph-name="endash" unicode="&#x2013;" horiz-adv-x="1024" 
d="M1036 426h-1048v184h1048v-184z" />
    <glyph glyph-name="emdash" unicode="&#x2014;" horiz-adv-x="2048" 
d="M2060 426h-2072v184h2072v-184z" />
    <glyph glyph-name="quoteleft" unicode="&#x2018;" horiz-adv-x="641" 
d="M330 1192h14.001c38 0 72.167 -14.5 102.5 -43.5s45.5 -65.167 45.5 -108.5c0 -42.667 -15.167 -77.834 -45.5 -105.501s-67.833 -41.5 -112.5 -41.5c-48.667 0 -89.167 19.5 -121.5 58.5s-48.5 94.5 -48.5 166.5c0 66 14.167 127.833 42.5 185.5s63 103.334 104 137.001
s77.5 50.5 109.5 50.5c20 0 36.167 -6.5 48.5 -19.5s18.5 -29.167 18.5 -48.5c0 -30 -12.667 -51.667 -38 -65c-35.333 -19.333 -63.333 -42 -84 -68s-32.334 -58.667 -35.001 -98z" />
    <glyph glyph-name="quoteright" unicode="&#x2019;" horiz-adv-x="641" 
d="M326 1188l-15.0029 0.00195312c-37.333 0 -71.166 15.167 -101.499 45.5s-45.5 66.166 -45.5 107.499c0 42.667 15.167 78.334 45.5 107.001s67.833 43 112.5 43c30.667 0 59.334 -8.83301 86.001 -26.5s47.334 -43.334 62.001 -77.001s22 -74.834 22 -123.501
c0 -66 -14 -127.833 -42 -185.5s-62.167 -103.334 -102.5 -137.001s-76.833 -50.5 -109.5 -50.5c-20.667 0 -37.5 6.5 -50.5 19.5s-19.5 28.833 -19.5 47.5c0 30 13.667 52 41 66c35.333 20.667 63 43.334 83 68.001s31.333 56.667 34 96z" />
    <glyph glyph-name="quotesinglbase" unicode="&#x201a;" horiz-adv-x="641" 
d="M326 -27c-44 0 -82 13.502 -114 40.502s-48 64.833 -48 113.5c0 42 15.667 77.333 47 106s68.333 43 111 43c32 0 61 -8.66699 87 -26s46.333 -42.833 61 -76.5s22 -75.167 22 -124.5c0 -66 -14 -127.833 -42 -185.5s-62.167 -103.334 -102.5 -137.001
s-76.833 -50.5 -109.5 -50.5c-20.667 0 -37.5 6.83301 -50.5 20.5s-19.5 29.5 -19.5 47.5c0 27.333 13.667 49.333 41 66c78 43.333 117 97.666 117 162.999z" />
    <glyph glyph-name="quotedblleft" unicode="&#x201c;" horiz-adv-x="938" 
d="M258 1192h14.001c38 0 72.167 -14.5 102.5 -43.5s45.5 -65.167 45.5 -108.5c0 -42.667 -15.167 -77.834 -45.5 -105.501s-67.833 -41.5 -112.5 -41.5c-48.667 0 -89.167 19.5 -121.5 58.5s-48.5 94.5 -48.5 166.5c0 66 14.167 127.833 42.5 185.5s63 103.334 104 137.001
s77.5 50.5 109.5 50.5c21.333 0 38 -6.33301 50 -19s18 -29 18 -49c0 -29.333 -13 -51 -39 -65c-35.333 -19.333 -63.333 -42 -84 -68s-32.334 -58.667 -35.001 -98zM700.001 1192h13.0029c37.333 0 71.166 -14.5 101.499 -43.5s45.5 -65.167 45.5 -108.5
c0 -42 -15.167 -77.333 -45.5 -106s-67.833 -43 -112.5 -43c-49.333 0 -90 20 -122 60s-48 95.667 -48 167c0 51.333 8.33301 99.666 25 144.999s38.167 84.833 64.5 118.5s54.666 60.334 84.999 80.001s57.5 29.5 81.5 29.5c22 0 38.833 -6.16699 50.5 -18.5
s17.5 -28.833 17.5 -49.5c0 -30 -13 -51.667 -39 -65c-36.667 -20.667 -64.334 -43.5 -83.001 -68.5s-30 -57.5 -34 -97.5z" />
    <glyph glyph-name="quotedblright" unicode="&#x201d;" horiz-adv-x="938" 
d="M238 1188l-15.001 -0.000976562c-37.333 0 -71.166 15.167 -101.499 45.5s-45.5 66.166 -45.5 107.499c0 42.667 15.167 78.334 45.5 107.001s67.5 43 111.5 43c50 0 90.833 -20 122.5 -60s47.5 -95.667 47.5 -167c0 -65.333 -13.833 -126.833 -41.5 -184.5
s-61.667 -103.5 -102 -137.5s-76.833 -51 -109.5 -51c-20.667 0 -37.5 6.5 -50.5 19.5s-19.5 28.833 -19.5 47.5c0 30 13.667 52 41 66c35.333 20.667 63 43.334 83 68.001s31.333 56.667 34 96zM677.999 1188h-12.002c-38 0 -72.5 15 -103.5 45s-46.5 66 -46.5 108
s15.333 77.5 46 106.5s68 43.5 112 43.5c50.667 0 91.667 -19.667 123 -59s47 -95.333 47 -168c0 -67.333 -13.833 -129.5 -41.5 -186.5s-61.667 -102.333 -102 -136s-77.166 -50.5 -110.499 -50.5c-21.333 0 -38.333 6.33301 -51 19s-19 28.667 -19 48
c0 29.333 13.667 51.333 41 66c38 22 66.333 44.833 85 68.5s29.334 55.5 32.001 95.5z" />
    <glyph glyph-name="quotedblbase" unicode="&#x201e;" horiz-adv-x="938" 
d="M682 -27c-44 0 -82 13.501 -114 40.501s-48 64.833 -48 113.5c0 42 15.667 77.333 47 106s68.333 43 111 43c32 0 61 -8.66699 87 -26s46.333 -42.833 61 -76.5s22 -75.167 22 -124.5c0 -66 -14 -127.833 -42 -185.5s-62.167 -103.334 -102.5 -137.001
s-76.833 -50.5 -109.5 -50.5c-20.667 0 -37.5 6.83301 -50.5 20.5s-19.5 29.5 -19.5 47.5c0 26.667 13.667 48.667 41 66c78 42.667 117 97 117 163zM242 -26.999c-44 0 -82 13.502 -114 40.502s-48 64.833 -48 113.5c0 42 15.667 77.333 47 106s68.333 43 111 43
c32 0 61 -8.66699 87 -26s46.333 -42.833 61 -76.5s22 -75.167 22 -124.5c0 -66 -14 -127.833 -42 -185.5s-62.167 -103.334 -102.5 -137.001s-76.833 -50.5 -109.5 -50.5c-20.667 0 -37.5 6.83301 -50.5 20.5s-19.5 29.5 -19.5 47.5c0 27.333 13.667 49.333 41 66
c78 43.333 117 97.666 117 162.999z" />
    <glyph glyph-name="dagger" unicode="&#x2020;" 
d="M485 -242v1080h-278c-43.333 0 -76 9.83301 -98 29.5s-33 45.167 -33 76.5c0 32 11.167 57.833 33.5 77.5s54.833 29.5 97.5 29.5h278v276c0 51.333 11.333 89.5 34 114.5s52.334 37.5 89.001 37.5c37.333 0 67.5 -12.5 90.5 -37.5s34.5 -63.167 34.5 -114.5v-276h279
c44 0 76.833 -9.66699 98.5 -29s32.5 -45.333 32.5 -78c0 -31.333 -11 -56.833 -33 -76.5s-54.667 -29.5 -98 -29.5h-279v-1080c0 -50.667 -11.5 -88.5 -34.5 -113.5s-53.167 -37.5 -90.5 -37.5c-36.667 0 -66.334 12.5 -89.001 37.5s-34 62.833 -34 113.5z" />
    <glyph glyph-name="daggerdbl" unicode="&#x2021;" 
d="M485 -242l0.000976562 230h-278c-44 0 -76.833 9.66699 -98.5 29s-32.5 45 -32.5 77c0 32.667 10.833 58.667 32.5 78s54.5 29 98.5 29h278v682h-278c-42.667 0 -75.167 9.83301 -97.5 29.5s-33.5 45.167 -33.5 76.5c0 32 11 57.833 33 77.5s54.667 29.5 98 29.5h278v231
c0 50.667 11.5 88.667 34.5 114s53.167 38 90.5 38c38 0 68 -12.833 90 -38.5s33 -63.5 33 -113.5v-231h279c44 0 76.833 -9.66699 98.5 -29s32.5 -45.333 32.5 -78c0 -32 -10.833 -57.667 -32.5 -77s-54.5 -29 -98.5 -29h-279v-682h279c44 0 76.833 -9.66699 98.5 -29
s32.5 -45.333 32.5 -78c0 -32 -10.833 -57.667 -32.5 -77s-54.5 -29 -98.5 -29h-279v-230c0 -50 -11.333 -87.667 -34 -113s-52.334 -38 -89.001 -38s-66.667 12.667 -90 38s-35 63 -35 113z" />
    <glyph glyph-name="bullet" unicode="&#x2022;" horiz-adv-x="725" 
d="M659 723c0 -82 -29.333 -151.666 -88 -208.999s-128.334 -86 -209.001 -86c-81.333 0 -150.666 28.667 -207.999 86s-86 127 -86 209c0 81.333 28.5 151.166 85.5 209.499s126.5 87.5 208.5 87.5c52.667 0 102 -13.333 148 -40s82.333 -63 109 -109s40 -95.333 40 -148z
" />
    <glyph glyph-name="ellipsis" unicode="&#x2026;" horiz-adv-x="2048" 
d="M1024 -23c-40 0 -75 13.3311 -105 39.998s-45 63.334 -45 110.001c0 41.333 14.5 76.5 43.5 105.5s64.5 43.5 106.5 43.5s77.833 -14.5 107.5 -43.5s44.5 -64.167 44.5 -105.5c0 -47.333 -15.333 -84.166 -46 -110.499s-66 -39.5 -106 -39.5zM342 -23.002
c-40 0 -74.833 13.167 -104.5 39.5s-44.5 63.166 -44.5 110.499c0 42 14.333 77.333 43 106s64 43 106 43s77.833 -14.5 107.5 -43.5s44.5 -64.167 44.5 -105.5c0 -47.333 -15.333 -84.166 -46 -110.499s-66 -39.5 -106 -39.5zM1706 -23.002
c-39.333 0 -74.167 13.333 -104.5 40s-45.5 63.334 -45.5 110.001c0 41.333 14.5 76.5 43.5 105.5s64.5 43.5 106.5 43.5s77.833 -14.5 107.5 -43.5s44.5 -64.167 44.5 -105.5c0 -46.667 -15.167 -83.334 -45.5 -110.001s-65.833 -40 -106.5 -40z" />
    <glyph glyph-name="perthousand" unicode="&#x2030;" horiz-adv-x="2474" 
d="M676 1090c0 -127.333 -27.9971 -222 -83.9971 -284s-132.667 -93 -230 -93c-60 0 -113.833 13.167 -161.5 39.5s-84.834 67.5 -111.501 123.5s-40 124.333 -40 205c0 86.667 10.333 159 31 217s54.167 102 100.5 132s105.5 45 177.5 45c52 0 97.667 -8 137 -24
s72.666 -40.5 99.999 -73.5s47.666 -73.167 60.999 -120.5s20 -103 20 -167zM489.003 1100c0 87.333 -9.33398 150.832 -28.001 190.499s-51.667 59.5 -99 59.5c-32 0 -57.5 -9.5 -76.5 -28.5s-32 -47 -39 -84s-10.5 -84.167 -10.5 -141.5
c0 -59.333 3.5 -107.666 10.5 -144.999s19.833 -65.5 38.5 -84.5s44.334 -28.5 77.001 -28.5c49.333 0 82.833 21 100.5 63s26.5 108.333 26.5 199zM1700 366.999c0 -127.333 -27.999 -221.999 -83.999 -283.999s-132.667 -93 -230 -93
c-60.667 0 -114.834 13.333 -162.501 40s-85 67.667 -112 123s-40.5 123.666 -40.5 204.999c0 130 24.833 227.833 74.5 293.5s128.5 98.5 236.5 98.5c52 0 97.5 -8 136.5 -24s72.333 -40 100 -72s48.167 -71.833 61.5 -119.5s20 -103.5 20 -167.5zM1513 377
c0 86 -9.33203 148.832 -27.999 188.499s-51.667 59.5 -99 59.5c-33.333 0 -59.333 -9.33301 -78 -28s-31.834 -46.167 -39.501 -82.5s-11.5 -83.5 -11.5 -141.5c0 -89.333 9.5 -154.666 28.5 -195.999s52.5 -62 100.5 -62c48.667 0 82 21.167 100 63.5s27 108.5 27 198.5z
M1343 1343l-833.001 -1343c-21.333 -36.667 -45.333 -55 -72 -55c-15.333 0 -30.666 5.83301 -45.999 17.5s-23 26.834 -23 45.501c0 14 6.66699 31 20 51l838 1354c14.667 24.667 27.5 43.167 38.5 55.5s26.833 18.5 47.5 18.5c20 0 36.167 -5.83301 48.5 -17.5
s18.5 -27.167 18.5 -46.5c0 -14 -12.333 -40.667 -37 -80zM2427 366.998c0 -85.333 -13.001 -156.002 -39.001 -212.002s-62.833 -97.5 -110.5 -124.5s-103.167 -40.5 -166.5 -40.5c-59.333 0 -113 13.333 -161 40s-85.333 67.834 -112 123.501s-40 123.834 -40 204.501
c0 129.333 24.333 227 73 293s127.334 99 236.001 99c104 0 183.333 -32.167 238 -96.5s82 -159.833 82 -286.5zM2241 376.996c0 86 -9.5 148.833 -28.5 188.5s-52.833 59.5 -101.5 59.5c-32.667 0 -58.334 -9.33301 -77 -28c-18.667 -18.667 -31.5 -46.5 -38.5 -83.5
s-10.5 -83.833 -10.5 -140.5c0 -58 3.5 -105.833 10.5 -143.5s20 -66.167 39 -85.5s44.5 -29 76.5 -29c50 0 84.167 21.333 102.5 64s27.5 108.667 27.5 198z" />
    <glyph glyph-name="guilsinglleft" unicode="&#x2039;" horiz-adv-x="748" 
d="M539 813l-181.004 -289.002l191 -303c17.333 -24 26 -47.667 26 -71c0 -25.333 -8.83301 -46.166 -26.5 -62.499s-39.5 -24.5 -65.5 -24.5c-20.667 0 -39.167 6.33301 -55.5 19s-37.166 38 -62.499 76l-179 268c-28.667 44 -43 76 -43 96c0 24 14.333 58.333 43 103
l185 276c34.667 54.667 71.334 82 110.001 82c25.333 0 47 -8.16699 65 -24.5s27 -36.166 27 -59.499c0 -13.333 -1.66699 -24.5 -5 -33.5s-7.66602 -18 -12.999 -27s-10.666 -17.5 -15.999 -25.5z" />
    <glyph glyph-name="guilsinglright" unicode="&#x203a;" horiz-adv-x="748" 
d="M201 221l190 302.998l-180 289l-18.5 28.5c-5.66699 8.33301 -10.167 17.5 -13.5 27.5s-5 20 -5 30c0 22.667 9.33301 42.334 28 59.001s40 25 64 25c38 0 75 -27.333 111 -82l184 -276c28.667 -42 43 -76.333 43 -103c0 -20.667 -14.333 -52.667 -43 -96l-176 -268
c-24 -36.667 -44.833 -61.667 -62.5 -75s-36.5 -20 -56.5 -20c-26.667 0 -49 8.5 -67 25.5s-27 37.5 -27 61.5c0 22.667 9.66699 46.334 29 71.001z" />
    <glyph glyph-name="Euro" unicode="&#x20ac;" 
d="M444 539c23.333 -239.333 99.9971 -358.999 229.997 -358.999c48.667 0 93.167 11.667 133.5 35s79.166 78 116.499 164c24 56 44.667 90.833 62 104.5s36 20.5 56 20.5c40 0 71.167 -11.5 93.5 -34.5s33.5 -55.167 33.5 -96.5c0 -98 -48 -188.5 -144 -271.5
s-212.333 -124.5 -349 -124.5c-128 0 -239.667 46.5 -335 139.5s-152.333 233.833 -171 422.5h-127c-12 0 -18 8.66699 -18 26c0 16.667 6.33301 37.667 19 63s23.334 38 32.001 38h86v36c0 29.333 1.33301 71.666 4 126.999h-123c-12 0 -18 8.33301 -18 25
c0 17.333 6.33301 38.666 19 63.999s23.334 38 32.001 38h100c43.333 347.333 207.333 521 492 521c125.333 0 233.333 -32.333 324 -97s136 -145 136 -241c0 -32.667 -10.667 -60.334 -32 -83.001s-47.333 -34 -78 -34c-34 0 -58.833 8.66699 -74.5 26s-31.167 44 -46.5 80
c-19.333 47.333 -42.333 83.5 -69 108.5s-72 37.5 -136 37.5c-73.333 0 -129.833 -25.667 -169.5 -77s-65.167 -131.666 -76.5 -240.999h322c13.333 0 20 -8.66699 20 -26c0 -18.667 -6.16699 -40.167 -18.5 -64.5s-23.166 -36.5 -32.499 -36.5h-299l-2 -98
c0 -30 0.666992 -51.667 2 -65h330c13.333 0 20 -8.33301 20 -25c0 -19.333 -6.16699 -41.166 -18.5 -65.499s-23.166 -36.5 -32.499 -36.5h-293z" />
    <glyph glyph-name="trademark" unicode="&#x2122;" horiz-adv-x="2048" 
d="M637 647h-166v676h-254v143h666v-143h-246v-676zM1137 647h-156v819h260l148 -565l149 565h260v-819h-158v653l-178 -653h-149l-176 653v-653z" />
    <glyph glyph-name="Omega" unicode="&#x2126;" horiz-adv-x="1573" 
d="M641 311l32.999 -311h-604v332h30c13.333 -52 28.5 -85.833 45.5 -101.5s47.167 -23.5 90.5 -23.5h323l-4 57c-59.333 18 -107.833 35.833 -145.5 53.5s-73.167 40.5 -106.5 68.5s-63.333 61.667 -90 101c-46 68.667 -76.167 139.5 -90.5 212.5
s-15.666 143.667 -3.99902 212s32.167 128.5 61.5 180.5c34.667 63.333 70.167 110 106.5 140s78.833 59 127.5 87c46 27.333 102.5 49.166 169.5 65.499s135.167 24.5 204.5 24.5c70 0 138.5 -8.16699 205.5 -24.5s123.5 -38.166 169.5 -65.499
c48.667 -28 91 -56.667 127 -86s71.667 -76.333 107 -141c29.333 -52 49.833 -112.167 61.5 -180.5s10.334 -139 -3.99902 -212s-44.5 -143.833 -90.5 -212.5c-40 -58 -85.833 -103.167 -137.5 -135.5s-119.834 -61.5 -204.501 -87.5l-4 -57h323
c43.333 0 73.833 8.16699 91.5 24.5s32.5 49.833 44.5 100.5h30v-332h-604l33 311l55.5 24.5c20.333 9 40.833 20.833 61.5 35.5s42 36.5 64 65.5s42.333 65.167 61 108.5c24.667 57.333 40.5 129.166 47.5 215.499s-0.5 173.333 -22.5 261s-61.333 159.5 -118 215.5
c-70.667 70.667 -169.667 106 -297 106s-226 -35.333 -296 -106c-56.667 -56 -96 -127.833 -118 -215.5s-29.5 -174.667 -22.5 -261s22.833 -158.166 47.5 -215.499c18.667 -43.333 38.834 -79.333 60.501 -108s43.167 -50.667 64.5 -66s41.666 -27.333 60.999 -36z" />
    <glyph glyph-name="partialdiff" unicode="&#x2202;" horiz-adv-x="1012" 
d="M220 1366l-80.0029 102.002c50.667 22.667 109.667 40 177 52s132 10.667 194 -4c68 -16 130.833 -45.667 188.5 -89s109.5 -105.333 155.5 -186c28 -48.667 49.333 -103.334 64 -164.001s24 -114.167 28 -160.5s6 -83.5 6 -111.5c0 -31.333 -3.33301 -79 -10 -143
s-18.167 -132.5 -34.5 -205.5s-36.833 -135.833 -61.5 -188.5c-32 -68 -62.5 -121.333 -91.5 -160s-69.5 -72.667 -121.5 -102c-68 -37.333 -137.5 -53.5 -208.5 -48.5s-134.833 26.833 -191.5 65.5c-30 20.667 -56.667 44.167 -80 70.5s-43.5 58.5 -60.5 96.5
s-27.5 81 -31.5 129c-6 74 3 142 27 204s52.667 113.667 86 155c38.667 47.333 81.334 83.833 128.001 109.5s101 37.5 163 35.5c58.667 -2 107.667 -12.333 147 -31s92.666 -54.667 159.999 -108c12 66 19.333 145.333 22 238c2 43.333 -4.5 99.5 -19.5 168.5
s-30.167 121.167 -45.5 156.5c-16 39.333 -44.167 78.5 -84.5 117.5s-88.5 60.833 -144.5 65.5c-37.333 3.33301 -67.166 4.33301 -89.499 3s-41.166 -4.33301 -56.499 -9s-36.666 -13.334 -63.999 -26.001zM756.997 612.002c-39.333 44.667 -73 77.833 -101 99.5
s-68.333 32.167 -121 31.5c-78 -2 -143.333 -38.667 -196 -110c-27.333 -38.667 -48.166 -75.5 -62.499 -110.5s-24.666 -70.667 -30.999 -107s-9.5 -73.833 -9.5 -112.5c0 -49.333 5.83301 -97.5 17.5 -144.5s37.5 -84.167 77.5 -111.5
c29.333 -18.667 57.166 -28.334 83.499 -29.001s55.166 5.66602 86.499 18.999c68.667 30 123.667 93.333 165 190c24 58.667 43.167 120.834 57.5 186.501s25.5 131.834 33.5 198.501z" />
    <glyph glyph-name="Delta" unicode="&#x2206;" horiz-adv-x="1253" 
d="M668 1409l577 -1409h-1233zM594 1059l-447 -959h844z" />
    <glyph glyph-name="product" unicode="&#x220f;" horiz-adv-x="1686" 
d="M1446 1288v-1282c0 -46 7.83301 -81 23.5 -105s38 -40.167 67 -48.5s65.167 -12.5 108.5 -12.5v-47h-627v47c66.667 0 116 11 148 33s48 66.333 48 133v1419h-733v-1419c0 -46 7.83301 -81 23.5 -105s38 -40.167 67 -48.5s65.167 -12.5 108.5 -12.5v-47h-629v47
c68 0 118.167 11 150.5 33s48.5 66.333 48.5 133v1282c0 135.333 -65 203 -195 203v47h1583v-47c-128 0 -192 -67.667 -192 -203z" />
    <glyph glyph-name="summation" unicode="&#x2211;" horiz-adv-x="1460" 
d="M1264 1526l11.998 -326h-41c-21.333 68 -38.166 114.333 -50.499 139s-38.666 46.667 -78.999 66s-101.5 29 -183.5 29h-539l559 -734l-602 -694h760c55.333 0 98 6.5 128 19.5s55.667 35 77 66s45 79.833 71 146.5h47c-30 -123.333 -48.667 -205 -56 -245
s-18 -111.333 -32 -214l-80 14.5c-27.333 5 -53 7.5 -77 7.5h-1031c-9.33301 0 -21.5 -0.5 -36.5 -1.5l-45 -3c-15 -1 -27.167 -1.5 -36.5 -1.5l714 815l-710 930c21.333 -1.33301 56.333 -4 105 -8s84.667 -6 108 -6h1018z" />
    <glyph glyph-name="fraction" unicode="&#x2215;" horiz-adv-x="299" 
d="M621 1343l-833.999 -1343c-21.333 -36.667 -46 -55 -74 -55c-15.333 0 -30.666 5.83301 -45.999 17.5s-23 26.834 -23 45.501c0 14 6.66699 31 20 51l840 1354c17.333 29.333 30.666 49.666 39.999 60.999s24.666 17 45.999 17c20.667 0 36.667 -6.16699 48 -18.5
s17 -28.833 17 -49.5c0 -15.333 -11.333 -42 -34 -80z" />
    <glyph glyph-name="periodcentered" unicode="&#x2219;" horiz-adv-x="641" 
d="M170 725c0 27.333 6.83105 52.333 20.498 75s31.834 40.667 54.501 54s47.334 20 74.001 20c42 0 77.833 -14.5 107.5 -43.5s44.5 -64.167 44.5 -105.5c0 -62.667 -25 -106.834 -75 -132.501s-100.167 -25.667 -150.5 0s-75.5 69.834 -75.5 132.501z" />
    <glyph glyph-name="radical" unicode="&#x221a;" horiz-adv-x="1124" 
d="M53 854l-33 68l299 147l404 -825l260 1634l72 -10l-307 -1946l-498 1028z" />
    <glyph glyph-name="infinity" unicode="&#x221e;" horiz-adv-x="1460" 
d="M738 608l110.499 97c23.667 20 47.667 37.667 72 53s51.5 29.666 81.5 42.999c48 21.333 95.667 30.5 143 27.5s91 -16.667 131 -41s72.333 -55.5 97 -93.5s39 -79 43 -123c5.33301 -52 -4.5 -103.5 -29.5 -154.5s-61.667 -92 -110 -123s-102.166 -43.5 -161.499 -37.5
c-46.667 4.66699 -91.334 16.167 -134.001 34.5s-79 38.666 -109 60.999s-59.167 47.666 -87.5 75.999s-43.833 43.5 -46.5 45.5l-56.5 -56c-21.667 -21.333 -47.167 -43.166 -76.5 -65.499s-65.333 -42.666 -108 -60.999s-88 -29.833 -136 -34.5
c-59.333 -6 -113.166 6.5 -161.499 37.5s-85 72 -110 123s-34.833 102.5 -29.5 154.5c4.66699 44.667 19.334 86 44.001 124s57 69 97 93s83.667 37.5 131 40.5s94.666 -6.16699 141.999 -27.5c30 -13.333 57.167 -27.666 81.5 -42.999s48.333 -33 72 -53zM670.999 541
c-58.667 50 -105.833 87.3311 -141.5 111.998s-69.834 42.667 -102.501 54c-40.667 14.667 -77.5 18.834 -110.5 12.501s-61.167 -19.833 -84.5 -40.5s-40.666 -44.5 -51.999 -71.5s-17 -52.833 -17 -77.5c0.666992 -37.333 13 -71.166 37 -101.499s54.333 -51.833 91 -64.5
s73 -14.667 109 -6c54 12.667 95.333 29.5 124 50.5s77.667 65.167 147 132.5zM806 540.998c45.333 -44.667 80.3301 -77.8301 104.997 -99.4971s49 -38.834 73 -51.501s54.667 -23.334 92 -32.001c36.667 -8.66699 73.334 -6.66699 110.001 6s67 34.167 91 64.5
s36.333 64.166 37 101.499c1.33301 32.667 -8.5 66.834 -29.5 102.501s-51.667 61.667 -92 78s-88.166 15.166 -143.499 -3.50098c-33.333 -12 -67.666 -30.5 -102.999 -55.5s-82 -61.833 -140 -110.5z" />
    </font>
</defs>
</svg>
