<?xml version="1.0" standalone="no"?>
<!DOCTYPE svg PUBLIC "-//W3C//DTD SVG 1.1//EN" "http://www.w3.org/Graphics/SVG/1.1/DTD/svg11.dtd" >
<svg xmlns="http://www.w3.org/2000/svg">
<metadata>
This is a custom SVG webfont generated by Font Squirrel.
Copyright   : Copyright  1993 1994 2001 Adobe Systems Incorporated  All Rights Reserved
Designer    : Herb Lubalin Tom Carnase Ed Benguiat Adobe Type Staff
Foundry URL : httpwwwadobecomtype
</metadata>
<defs>
<font id="ITCAvantGardeGothicStdBook" horiz-adv-x="1179" >
<font-face units-per-em="2048" ascent="1516" descent="-532" />
<missing-glyph horiz-adv-x="589" />
<glyph unicode=" "  horiz-adv-x="589" />
<glyph unicode="&#x09;" horiz-adv-x="589" />
<glyph unicode="&#xa0;" horiz-adv-x="589" />
<glyph unicode="!" horiz-adv-x="581" d="M213 0v225h156v-225h-156zM213 393v1123h156v-1123h-156z" />
<glyph unicode="&#x22;" horiz-adv-x="770" d="M180 909v607h125v-607h-125zM465 909v607h125v-607h-125z" />
<glyph unicode="#" d="M45 528l10 107h279l33 237h-275l10 107h281l57 410h111l-57 -410h247l58 410h110l-57 -410h283l-11 -107h-288l-33 -237h282l-10 -107h-287l-63 -446h-109l62 446h-248l-61 -446h-113l63 446h-274zM444 635h248l35 237h-248z" />
<glyph unicode="$" d="M168 463h158q8 -129 89 -198.5t183 -69.5q109 0 183.5 75.5t74.5 182.5q0 57 -21.5 104t-49 74.5t-82 54.5t-90 39t-103.5 33q-299 90 -299 352q0 150 90 248t229 123v178h134v-178q150 -23 230.5 -121t84.5 -230h-148q-12 111 -82.5 169.5t-150.5 58.5 q-92 0 -160.5 -65.5t-68.5 -170.5q0 -49 17 -89t40 -64.5t72 -48t81.5 -35t102.5 -33.5q332 -113 332 -387q0 -141 -96.5 -256t-253.5 -139v-199h-134v199q-160 16 -258 127.5t-104 265.5z" />
<glyph unicode="%" horiz-adv-x="1566" d="M55 1198v2q0 145 99.5 244.5t244.5 99.5q147 0 246.5 -99t99.5 -246.5t-99 -247t-247 -99.5q-145 0 -244.5 99.5t-99.5 246.5zM168 1196q0 -100 65.5 -166.5t166 -66.5t166 66.5t65.5 168.5t-65.5 169t-166 67t-166 -67t-65.5 -169v-2zM303 0l834 1516h123l-836 -1516 h-121zM821 317v2q0 145 99.5 245t246.5 100q145 0 244.5 -99.5t99.5 -247t-99 -247t-245 -99.5q-147 0 -246.5 99.5t-99.5 246.5zM934 315q0 -100 65.5 -166.5t167.5 -66.5q100 0 166 66.5t66 169t-65.5 170t-166.5 67.5q-102 0 -167.5 -67.5t-65.5 -170.5v-2z" />
<glyph unicode="&#x26;" horiz-adv-x="1501" d="M109 401q0 285 364 455q-63 68 -96 109t-61.5 103t-30.5 130q0 141 101 242.5t250.5 101.5t253 -101.5t103.5 -242.5q0 -74 -24.5 -131t-75.5 -100t-91 -66.5t-110 -58.5l309 -316l209 408h162l-268 -510l340 -346l-107 -103l-313 322q-84 -166 -185.5 -246t-273.5 -80 q-201 0 -328.5 128t-127.5 302zM272 412q2 -121 86 -207t215 -86q125 0 201 66.5t146 211.5l-351 363q-162 -76 -228.5 -162t-68.5 -186zM434 1208q0 -25 5 -48t16.5 -45.5t20.5 -39t30.5 -40t31 -34t34 -36t30.5 -31.5q139 68 193.5 120t54.5 146q0 86 -59.5 148.5 t-151.5 62.5h-2q-90 0 -146.5 -61.5t-56.5 -141.5z" />
<glyph unicode="'" horiz-adv-x="468" d="M172 909v607h125v-607h-125z" />
<glyph unicode="(" horiz-adv-x="903" d="M184 498q0 322 173 613.5t472 430.5v-172q-201 -115 -340 -351.5t-139 -522.5q0 -285 138.5 -521.5t340.5 -353.5v-176q-309 160 -477 442.5t-168 610.5z" />
<glyph unicode=")" horiz-adv-x="903" d="M74 -383q201 117 339 352.5t138 524.5q0 283 -137.5 520t-339.5 354v174q309 -160 476 -441.5t167 -608.5q0 -324 -172 -616t-471 -431v172z" />
<glyph unicode="*" horiz-adv-x="1239" d="M303 1069l246 117l-246 112l57 101l226 -156l-23 273h113l-21 -273l226 156l53 -99l-242 -114l244 -119l-55 -98l-228 155l23 -272h-113l23 274l-224 -157z" />
<glyph unicode="+" horiz-adv-x="1228" d="M100 440v148h441v442h147v-442h440v-148h-440v-440h-147v440h-441z" />
<glyph unicode="," horiz-adv-x="591" d="M88 -154l129 381h162l-154 -381h-137z" />
<glyph unicode="-" horiz-adv-x="555" d="M0 500v149h555v-149h-555z" />
<glyph unicode="." horiz-adv-x="591" d="M217 0v225h160v-225h-160z" />
<glyph unicode="/" horiz-adv-x="1112" d="M141 -205l660 1721h170l-660 -1721h-170z" />
<glyph unicode="0" d="M76 485v533q0 125 40 222t97 152.5t131 91.5t133.5 47t110.5 11q127 0 241.5 -54t193.5 -174t79 -284v-545q0 -141 -54.5 -246.5t-138.5 -159.5t-163.5 -80t-151.5 -26q-61 0 -128 15.5t-137.5 53.5t-126 94.5t-91 147t-35.5 201.5zM246 481q0 -158 98 -258t246 -100 q131 0 237.5 96t106.5 262v553q0 47 -11.5 95.5t-38 96.5t-64.5 84t-99.5 59.5t-134.5 23.5q-150 0 -245 -101.5t-95 -265.5v-545z" />
<glyph unicode="1" d="M223 1370v146h475v-1516h-170v1370h-305z" />
<glyph unicode="2" d="M113 0v137q74 72 157.5 154t185 180t156.5 154q156 147 205 213q84 113 90 231q0 145 -88 234.5t-223 89.5t-220 -99.5t-89 -269.5h-162q6 231 131 365q127 154 356 153q207 0 337 -133t126 -332q-4 -117 -58 -213t-173 -221q-332 -332 -500 -498h735v-145h-966z" />
<glyph unicode="3" d="M76 444h170q6 -145 102 -233t227 -88q145 0 233.5 94t88.5 232q0 129 -97.5 226t-258.5 97h-101v131h76q145 0 216 80t71 168q0 104 -62.5 173t-165.5 69q-111 0 -173 -70t-68 -166h-166q4 129 71.5 220t154.5 128t184 37q166 0 279.5 -103.5t113.5 -269.5 q0 -211 -209 -319q94 -33 159.5 -87t94 -116.5t40 -110t11.5 -92.5q0 -207 -141.5 -339t-356.5 -132q-117 0 -224 48.5t-175 136.5q-90 120 -94 286z" />
<glyph unicode="4" d="M16 285v129l740 1102h174v-1094h160v-137h-160v-285h-164v285h-750zM193 422h581v889z" />
<glyph unicode="5" d="M47 432h170q23 -141 127.5 -225t228.5 -84q147 0 256 109.5t109 263.5q0 156 -107.5 266t-259.5 110q-178 0 -297 -161l-139 34l137 771h732v-146h-601l-86 -450q135 94 287 94q223 0 363.5 -156t140.5 -356q0 -213 -151.5 -372t-381.5 -159q-193 0 -347 124t-181 337z " />
<glyph unicode="6" d="M59 498q0 190 134 389l430 629h192l-303 -441q-12 -20 -37.5 -57t-34.5 -49q80 53 193 53q197 0 342 -141.5t145 -370.5q0 -223 -151.5 -380t-376.5 -157q-266 0 -410 181q-123 139 -123 344zM227 487q0 -154 100.5 -259t258 -105t261 108.5t103.5 264.5 q0 172 -107.5 274t-248.5 102q-137 0 -252 -99t-115 -284v-2z" />
<glyph unicode="7" d="M164 1370v146h864v-136l-629 -1380h-182l635 1370h-688z" />
<glyph unicode="8" d="M98 446q2 139 74 248t199 156q-82 41 -139.5 125t-57.5 190v2q0 152 117 263.5t299 111.5t298 -110.5t116 -266.5q0 -106 -57.5 -190t-139.5 -125q125 -45 197.5 -154.5t76.5 -249.5q-4 -201 -144 -337t-347 -136q-209 0 -348.5 135t-143.5 338zM266 444 q0 -133 93.5 -227t230.5 -94q135 0 228 95t93 228.5t-92 229.5t-229 96t-230.5 -96t-93.5 -230v-2zM340 1151q0 -102 72.5 -174t177.5 -72q102 0 175 72t73 176t-73 177t-175 73q-104 0 -177 -71.5t-73 -178.5v-2z" />
<glyph unicode="9" d="M59 1006q0 223 153 379.5t378 156.5q266 0 409 -180q123 -143 123 -344q0 -184 -133 -389l-432 -629h-192l303 440q25 37 73 107q-84 -53 -192 -53q-197 0 -343.5 141.5t-146.5 370.5zM229 1020q0 -170 108.5 -273.5t248.5 -103.5q86 0 167 38t141 129t60 216v2 q0 154 -101 259.5t-259 105.5q-156 0 -260.5 -108.5t-104.5 -264.5z" />
<glyph unicode=":" horiz-adv-x="591" d="M217 0v225h160v-225h-160zM217 877v225h160v-225h-160z" />
<glyph unicode=";" horiz-adv-x="591" d="M88 -154l129 381h162l-160 -381h-131zM217 877v225h158v-225h-158z" />
<glyph unicode="&#x3c;" horiz-adv-x="1228" d="M100 440v150l1028 467v-162l-870 -381l870 -379v-162z" />
<glyph unicode="=" horiz-adv-x="1228" d="M100 219v146h1028v-146h-1028zM100 664v145h1028v-145h-1028z" />
<glyph unicode="&#x3e;" horiz-adv-x="1228" d="M100 -27v162l871 381l-871 379v162l1028 -467v-150z" />
<glyph unicode="?" horiz-adv-x="1136" d="M88 1075q0 33 2 49q18 201 158.5 309.5t312.5 108.5q190 0 321.5 -126t131.5 -304q0 -61 -18.5 -116.5t-61.5 -111t-71.5 -84t-88.5 -85.5q-70 -66 -105.5 -132.5t-41.5 -103.5t-9 -92h-159q4 117 43 209t153 201q117 121 146 166q39 63 41 137q0 119 -80 201.5 t-207 82.5q-109 0 -194 -65.5t-103 -188.5q-4 -18 -4 -55h-166zM459 0v225h157v-225h-157z" />
<glyph unicode="@" horiz-adv-x="1597" d="M53 748q0 328 226.5 562t566.5 234q287 0 498.5 -179t211.5 -470q0 -131 -47 -242.5t-117.5 -180.5t-147.5 -106.5t-142 -37.5q-37 0 -71 10t-67.5 47t-37.5 94q-100 -145 -256 -145q-94 0 -174 74.5t-80 224.5q0 201 127 368.5t297 167.5q158 0 215 -153l37 123h110 l-158 -521q0 -2 -10 -41.5t-12 -60.5q-2 -51 26.5 -69.5t67.5 -18.5q109 0 223.5 131t114.5 334q0 256 -181 404.5t-421 148.5q-289 0 -489.5 -201t-200.5 -500q0 -274 187.5 -474.5t488.5 -200.5q158 0 313.5 66.5t247.5 195.5l49 -62q-102 -152 -279.5 -225.5 t-330.5 -73.5q-176 0 -327 65.5t-249 175.5t-153.5 249.5t-55.5 286.5zM528 633q0 -106 49.5 -152.5t112.5 -46.5q106 0 168 69.5t90 158.5q68 180 68 231q-2 84 -52.5 130t-113.5 46q-117 0 -219.5 -131t-102.5 -303v-2z" />
<glyph unicode="A" horiz-adv-x="1456" d="M16 0l633 1516h164l627 -1516h-185l-176 426h-706l-174 -426h-183zM424 565h604l-303 760z" />
<glyph unicode="B" horiz-adv-x="1177" d="M152 0v1516h399q197 0 299 -72q164 -92 164 -316q0 -217 -203 -321q94 -29 158.5 -83t90 -117.5t34 -104.5t8.5 -80q-4 -248 -207 -354q-66 -39 -136.5 -53.5t-189.5 -14.5h-417zM319 150h275q115 0 184 28q158 68 160 252q0 90 -44 156.5t-118 99.5q-72 31 -213 31h-244 v-567zM319 860h230q115 0 178 31q123 68 123 225q0 78 -36 135.5t-87 79.5q-61 33 -188 35h-220v-506z" />
<glyph unicode="C" horiz-adv-x="1640" d="M82 758q0 328 225 556t563 228q256 0 437.5 -135t261.5 -307h-183q-23 41 -62.5 85t-103 94t-155.5 82t-195 32q-264 0 -442 -183.5t-178 -449.5q0 -270 178 -453.5t442 -183.5q111 0 207.5 33.5t159.5 89t95 91.5t54 71h183q-78 -184 -267.5 -309.5t-429.5 -125.5 q-336 0 -563 227.5t-227 557.5z" />
<glyph unicode="D" horiz-adv-x="1464" d="M152 0v1516h452q406 0 596 -228q182 -201 182 -528q0 -350 -197.5 -555t-572.5 -205h-460zM319 150h302q287 0 439 162.5t152 441.5q0 281 -147 442q-160 170 -444 170h-302v-1216z" />
<glyph unicode="E" horiz-adv-x="1107" d="M152 0v1516h839v-150h-672v-526h668v-150h-668v-540h672v-150h-839z" />
<glyph unicode="F" horiz-adv-x="997" d="M152 0v1516h770v-150h-603v-532h599v-152h-599v-682h-167z" />
<glyph unicode="G" horiz-adv-x="1746" d="M80 760q0 338 230.5 560t563.5 222q229 0 425 -116.5t286 -303.5h-192q-72 98 -170 164q-156 106 -353 107q-256 0 -438 -178.5t-182 -454.5q0 -281 183 -460t439 -179q231 0 406 137q166 131 205 317h-754v140h950q-4 -160 -67 -293q-96 -209 -300 -330t-440 -121 q-334 0 -563 226.5t-229 562.5z" />
<glyph unicode="H" horiz-adv-x="1372" d="M152 0v1516h167v-674h732v674h170v-1516h-170v692h-732v-692h-167z" />
<glyph unicode="I" horiz-adv-x="473" d="M152 0v1516h167v-1516h-167z" />
<glyph unicode="J" horiz-adv-x="1011" d="M12 354h183q0 -6 4 -30q31 -109 102.5 -155t140.5 -46q88 2 145.5 43t78.5 98q27 70 26 193v1059h170v-1027q0 -190 -41 -286q-45 -92 -125 -150q-115 -80 -262 -80q-49 0 -105.5 14.5t-120 46.5t-113.5 96.5t-70 152.5q-9 32 -13 71z" />
<glyph unicode="K" horiz-adv-x="1214" d="M184 0v1516h168v-734l617 734h184l-635 -756l699 -760h-211l-654 719v-719h-168z" />
<glyph unicode="L" horiz-adv-x="909" d="M154 0v1516h170v-1366h577v-150h-747z" />
<glyph unicode="M" horiz-adv-x="1898" d="M152 0v1516h237l561 -1272l559 1272h238v-1516h-160l4 1348l-587 -1348h-109l-590 1348l4 -1348h-157z" />
<glyph unicode="N" horiz-adv-x="1525" d="M152 0v1516h172l888 -1266l-2 1266h164v-1516h-164l-899 1276l4 -1276h-163z" />
<glyph unicode="O" horiz-adv-x="1742" d="M80 752v2q0 344 231.5 566t558.5 222q334 0 562.5 -226t228.5 -558q0 -334 -227.5 -559.5t-563.5 -225.5q-334 0 -562 226.5t-228 552.5zM250 758q0 -268 179 -451.5t443 -183.5q266 0 443.5 185.5t177.5 449.5t-178 449.5t-445 185.5q-264 0 -442 -184.5t-178 -448.5v-2 z" />
<glyph unicode="P" horiz-adv-x="1130" d="M137 0v1516h400q160 0 247.5 -21.5t159.5 -75.5q74 -57 118 -155.5t44 -205t-43 -206.5t-113 -154q-74 -57 -162 -79.5t-237 -22.5h-244v-596h-170zM307 745h242q182 0 280 64q49 33 81 100.5t32 145.5q0 80 -31.5 147.5t-83.5 100.5q-98 63 -282 63h-238v-621z" />
<glyph unicode="Q" horiz-adv-x="1796" d="M100 756q0 328 227.5 557t563.5 229q338 0 565 -227.5t227 -552.5q0 -106 -21.5 -198.5t-62 -163t-65.5 -103.5t-66 -78q125 -80 324 -102v-144q-82 8 -123 15q-168 20 -319 125q-213 -141 -455 -142q-176 0 -327.5 65.5t-253 175.5t-158 251t-56.5 293zM279 809 q0 -8 -1 -16q0 -97 23 -175q170 55 309 56q227 0 408 -109q74 -43 315 -239q182 166 183 436q0 272 -181.5 451.5t-443.5 179.5h-2q-246 0 -421 -165t-189 -419zM332 477q51 -106 127 -181t157.5 -110.5t149.5 -50t129 -14.5h2q193 0 330 100q-23 23 -114 95.5t-95 76.5 q-199 135 -426 135q-123 0 -260 -51z" />
<glyph unicode="R" horiz-adv-x="1202" d="M137 0v1516h395q303 0 426 -78q92 -55 149.5 -167t57.5 -241v-14q0 -161 -90 -283q-63 -86 -141 -119.5t-197 -46.5l377 -567h-184l-428 662h49q252 0 336 77q115 113 114 279q0 86 -39.5 167t-109.5 126q-86 55 -307 55h-238v-1366h-170z" />
<glyph unicode="S" horiz-adv-x="1097" d="M78 422h170q16 -166 110.5 -235.5t192.5 -69.5q121 0 212 83t91 206q0 72 -25.5 124t-80 86.5t-100.5 54t-126 44.5q-18 6 -26 8q-55 16 -89 28.5t-97.5 46t-101.5 72.5t-68.5 105.5t-30.5 154.5q0 188 132 300q134 113 318 112q74 0 143.5 -21.5t132 -65.5t104.5 -123 t50 -181h-168q-47 248 -268 248q-117 0 -197 -73t-80 -187q0 -39 10.5 -72t21.5 -55.5t46 -46.5l53 -37q17 -12 73.5 -34t78 -30t94.5 -33q55 -20 79 -30t79 -38t83 -55.5t62.5 -69.5t50 -97.5t15.5 -122.5q0 -188 -130 -316.5t-339 -128.5q-199 0 -333 120t-142 329z" />
<glyph unicode="T" horiz-adv-x="946" d="M14 1366v150h918v-150h-375v-1366h-170v1366h-373z" />
<glyph unicode="U" horiz-adv-x="1302" d="M147 555v961h170v-961q0 -74 2.5 -110.5t18.5 -91t51 -103.5q41 -57 111.5 -92t152.5 -35t151.5 33.5t108.5 91.5q35 47 51.5 101t18.5 92t2 114v961h168v-961v-17q0 -145 -33 -254q-35 -116 -139 -196q-135 -115 -328 -115q-205 0 -334 115q-76 61 -115.5 145t-48 152 t-8.5 170z" />
<glyph unicode="V" horiz-adv-x="1402" d="M20 1516h179l501 -1297l504 1297h178l-602 -1516h-162z" />
<glyph unicode="W" horiz-adv-x="1882" d="M27 1516h174l344 -1285l332 1285h127l337 -1285l340 1285h172l-423 -1516h-166l-324 1231l-324 -1231h-170z" />
<glyph unicode="X" horiz-adv-x="1275" d="M18 0l521 782l-488 734h195l391 -605l391 605h193l-486 -736l522 -780h-194l-432 657l-424 -657h-189z" />
<glyph unicode="Y" horiz-adv-x="1198" d="M27 1516h184l389 -820l387 820h184l-487 -984v-532h-170v532z" />
<glyph unicode="Z" horiz-adv-x="1021" d="M18 1366v150h957v-130l-731 -1236h760v-150h-965v109l743 1257h-764z" />
<glyph unicode="[" horiz-adv-x="903" d="M254 -397v1913h504v-132h-355v-1648h355v-133h-504z" />
<glyph unicode="\" horiz-adv-x="1112" d="M141 1516h170l660 -1721h-170z" />
<glyph unicode="]" horiz-adv-x="903" d="M145 -264h353v1648h-353v132h502v-1913h-502v133z" />
<glyph unicode="^" horiz-adv-x="1228" d="M182 768l355 748h155l355 -748h-166l-267 606l-266 -606h-166z" />
<glyph unicode="_" horiz-adv-x="1024" d="M0 -154h1024v-102h-1024v102z" />
<glyph unicode="`" horiz-adv-x="1136" d="M272 1487l54 110l489 -276l-49 -96z" />
<glyph unicode="a" horiz-adv-x="1400" d="M80 551q0 246 161.5 414t409.5 168q164 0 285 -79t166 -184v232h151v-1102h-151v227q-63 -123 -182 -190.5t-269 -67.5q-258 0 -414.5 172t-156.5 410zM229 549q2 -106 47.5 -202.5t148.5 -166t247 -69.5q141 0 246.5 73.5t150.5 194.5q37 80 37 174v18q0 84 -35 158 q-47 117 -154.5 190.5t-248.5 73.5q-188 0 -313.5 -128t-125.5 -314v-2z" />
<glyph unicode="b" horiz-adv-x="1392" d="M147 0v1516h152v-414v-221q70 117 187.5 183t261.5 69q240 0 403.5 -163t163.5 -417q0 -250 -162 -417t-410 -167q-154 0 -270.5 68.5t-179.5 189.5v-227h-146zM291 553q0 -184 120.5 -313t309.5 -129q207 0 324.5 133t117.5 307v2q0 188 -126 314t-310 126 q-188 0 -312 -128t-124 -312z" />
<glyph unicode="c" horiz-adv-x="1290" d="M78 551q0 246 166 414t415 168q193 0 349.5 -110t212.5 -302h-156q-49 133 -161.5 202.5t-237.5 69.5q-178 0 -312 -125q-125 -121 -125 -317q0 -193 126 -316.5t309 -123.5q150 2 255 77.5t144 184.5h158q-55 -178 -206 -291t-345 -113q-268 0 -430 174.5t-162 407.5z " />
<glyph unicode="d" horiz-adv-x="1400" d="M80 553q0 248 160.5 414t406.5 166q168 0 288 -78t163 -176v233v404h151v-1516h-145v227q-63 -117 -177 -187.5t-278 -70.5q-256 0 -412.5 171t-156.5 413zM229 551q2 -178 120 -309t323 -131q188 0 313 129q123 127 123 300v17q0 186 -127 309q-123 127 -311.5 127 t-314.5 -127t-126 -313v-2z" />
<glyph unicode="e" horiz-adv-x="1286" d="M63 549q0 244 167 414t413 170q242 0 404 -156q94 -92 139 -214q35 -96 35 -199q0 -28 -2 -56h-1004q6 -193 139 -301q131 -107 285 -107h6q127 0 226.5 59.5t152.5 168.5h158q-76 -176 -224 -269q-139 -90 -313 -90q-182 0 -318.5 89t-200 218.5t-63.5 272.5zM217 629 h852q-8 150 -133 264q-121 111 -279 111h-12q-174 0 -296 -110.5t-132 -264.5z" />
<glyph unicode="f" horiz-adv-x="573" d="M12 981v121h162v90q0 350 387 350v-121q-39 -2 -55.5 -4t-58 -15t-63.5 -36t-41 -72t-19 -116v-76h237v-121h-237v-981h-150v981h-162z" />
<glyph unicode="g" horiz-adv-x="1394" d="M78 549q0 250 162.5 417t412.5 167q156 0 277 -75t170 -184v228h149v-975q0 -276 -164 -434q-82 -80 -193.5 -125t-223.5 -45q-199 0 -344.5 100.5t-200.5 255.5h174q51 -90 131 -145q111 -80 244 -80q168 0 297 121t129 317v141q-61 -121 -176 -192.5t-269 -71.5 q-254 0 -414.5 168t-160.5 412zM229 551q0 -178 120 -309t323 -131q186 0 309 127q119 127 123 311q0 162 -100 289q-119 154 -336 153q-184 0 -311.5 -124t-127.5 -314v-2z" />
<glyph unicode="h" horiz-adv-x="1304" d="M147 0v1516h152v-404v-190q49 104 159 159q102 51 217 52h17q246 0 365 -152q104 -133 104 -387v-594h-149v588q0 186 -80 291q-94 113 -277 112q-174 0 -268 -108q-88 -96 -88 -256v-627h-152z" />
<glyph unicode="i" horiz-adv-x="446" d="M147 0v1102h152v-1102h-152zM147 1305v211h152v-211h-152z" />
<glyph unicode="j" horiz-adv-x="518" d="M-14 -303q20 0 28 2q109 18 141.5 93t32.5 220v1090h152v-1086q0 -72 -4 -120t-20.5 -110t-48 -101t-91 -71t-143.5 -42q-31 0 -47 -2v127zM188 1305v211h152v-211h-152z" />
<glyph unicode="k" horiz-adv-x="1040" d="M152 0v1516h151v-867l496 453h186l-530 -484l555 -618h-179l-528 586v-586h-151z" />
<glyph unicode="l" horiz-adv-x="444" d="M147 0v1516h152v-1516h-152z" />
<glyph unicode="m" horiz-adv-x="1957" d="M147 0v1102h144v-174q49 98 147.5 151.5t200.5 53.5q190 0 301 -125q29 -29 72 -115q39 74 80 117q117 123 303 123q188 0 297 -111q70 -70 97.5 -164t27.5 -246v-612h-152v606q0 201 -82 293q-72 92 -219 92q-164 0 -242 -114q-41 -55 -53 -110.5t-12 -154.5v-612h-152 v612q1 14 1 29q0 144 -58 233q-82 115 -242 117h-9q-69 0 -127 -29q-62 -32 -97 -83q-74 -100 -74 -265v-614h-152z" />
<glyph unicode="n" horiz-adv-x="1306" d="M147 0v1102h144q0 -123 -2 -197q49 109 156 169q104 58 244 59h9q240 -2 351.5 -143.5t111.5 -362.5v-627h-149v596q0 186 -88 292q-86 103 -260 103h-7q-170 -2 -264 -99t-94 -269v-623h-152z" />
<glyph unicode="o" horiz-adv-x="1329" d="M80 551v2q0 238 163 409t421 171q260 0 422.5 -171t162.5 -411t-162.5 -410t-422.5 -170q-258 0 -421 170t-163 410zM229 549q0 -186 125 -312t309.5 -126t309.5 125.5t125 314t-125 314.5t-309.5 126t-309.5 -126t-125 -314v-2z" />
<glyph unicode="p" horiz-adv-x="1400" d="M147 -418v1520h144v-230q147 260 461 261q262 0 413.5 -177.5t151.5 -408.5q0 -238 -158 -408t-407 -170q-168 0 -288 78t-165 178v-225v-418h-152zM289 548.5q0 -186.5 127 -312.5q125 -125 311 -125t312 125.5t126 314.5v2q0 172 -116.5 306t-325.5 134 q-182 0 -311 -129q-123 -129 -123 -315.5z" />
<glyph unicode="q" horiz-adv-x="1396" d="M80 545q0 250 159.5 419t411.5 169q160 0 275.5 -71t177.5 -181v221h145v-1520h-151v418v223q-45 -98 -165 -176t-290 -78q-248 0 -405.5 168t-157.5 408zM229 547q0 -182 126 -309t315 -127q184 0 311 127q125 125 125 311v17q0 174 -123 296q-125 131 -311 131 q-207 0 -324 -134t-119 -310v-2z" />
<glyph unicode="r" horiz-adv-x="659" d="M147 0v1102h144v-180q98 203 352 211v-150h-14q-160 0 -246 -98.5t-86 -284.5v-600h-150z" />
<glyph unicode="s" horiz-adv-x="921" d="M82 313h149q4 -106 72 -162.5t158 -56.5q94 0 154 61q58 58 59 140q0 94 -65 145q-62 49 -212 92q-137 41 -209.5 102.5t-74.5 182.5q0 143 99 229.5t245 86.5q82 0 153.5 -29t124.5 -100.5t58 -178.5h-150q0 86 -52 134.5t-136 48.5q-88 0 -142 -53q-49 -48 -49 -115 v-11q2 -74 54.5 -113.5t162.5 -72.5q66 -18 97.5 -27.5t87 -36t82 -57t50 -83t25.5 -120.5q0 -8 1 -16q0 -139 -101 -233q-106 -100 -264 -101q-147 0 -261 91t-116 253z" />
<glyph unicode="t" horiz-adv-x="643" d="M16 981v121h217v414h150v-414h242v-121h-242v-981h-150v981h-217z" />
<glyph unicode="u" horiz-adv-x="1308" d="M145 477v625h150v-596q0 -186 87 -292q85 -103 260 -103h7q172 2 266.5 99t94.5 269v623h151v-1102h-143v197q-47 -109 -154 -169q-103 -58 -244 -59h-10q-242 4 -353.5 145.5t-111.5 362.5z" />
<glyph unicode="v" horiz-adv-x="1060" d="M16 1102h160l354 -916l353 916h159l-434 -1102h-157z" />
<glyph unicode="w" horiz-adv-x="1613" d="M18 1102h160l303 -907l264 809h125l267 -809l301 907h157l-381 -1102h-149l-260 803l-256 -803h-148z" />
<glyph unicode="x" horiz-adv-x="985" d="M14 0l385 565l-368 537h184l277 -424l278 424h180l-366 -537l387 -565h-185l-294 444l-293 -444h-185z" />
<glyph unicode="y" horiz-adv-x="1048" d="M16 1102h162l346 -891l357 891h166l-629 -1520h-164l188 438z" />
<glyph unicode="z" horiz-adv-x="858" d="M27 0v111l610 870h-586v121h756v-123l-598 -858h620v-121h-802z" />
<glyph unicode="{" horiz-adv-x="958" d="M229 406v155q68 14 122.5 97t54.5 210v404q0 262 217 262h176v-121h-111q-80 0 -102.5 -43t-22.5 -160v-395q0 -106 -58.5 -200.5t-125.5 -133.5q74 -25 129 -109.5t55 -203.5v-393q0 -123 23.5 -164t101.5 -41h111v-121h-176q-217 0 -217 266v394q-1 223 -177 297z" />
<glyph unicode="|" horiz-adv-x="1136" d="M485 -512v2048h166v-2048h-166z" />
<glyph unicode="}" horiz-adv-x="958" d="M160 -430h110q78 0 101.5 41t23.5 164v393q0 113 60.5 200t124.5 115q-80 37 -132.5 128t-52.5 204v395q0 117 -23.5 160t-101.5 43h-110v121h176q217 0 217 -262v-404q0 -127 54.5 -210t121.5 -97v-155q-176 -74 -176 -297v-394q0 -266 -217 -266h-176v121z" />
<glyph unicode="~" horiz-adv-x="1228" d="M150 508q41 76 106.5 119t146.5 41q72 0 236 -74q12 -6 45 -20.5t48.5 -20.5t41 -15.5t44 -13.5t36.5 -4q37 0 72 22.5t55 46t47 64.5l49 -133q-94 -158 -221 -158q-78 0 -225 72q-152 74 -232 74q-119 6 -198 -131z" />
<glyph unicode="&#xa1;" horiz-adv-x="581" d="M213 -412v1123h156v-1123h-156zM213 877v227h156v-227h-156z" />
<glyph unicode="&#xa2;" d="M135 758q0 100 39 194.5t135.5 174t233.5 102.5v201h131v-201q270 -51 370 -301h-161q-86 156 -273 155q-141 0 -231 -93t-90 -226t86 -229.5t235 -96.5q104 0 171 45t98 101h168q-55 -129 -159 -201t-210 -90v-219h-135v219q-203 33 -305.5 172t-102.5 293z" />
<glyph unicode="&#xa3;" d="M18 694v127h150q-74 100 -76 232q0 201 142.5 346t365.5 145q182 0 322.5 -112.5t173.5 -307.5h-162q-29 117 -117 194t-215 77q-150 -2 -243 -98.5t-97 -245.5q4 -129 92 -230h480v-127h-388q166 -139 166 -313q0 -117 -88 -244h154q94 0 145 15.5t97 52.5q92 94 92 215 q0 43 -15 92h154q14 -72 14 -111q0 -160 -112 -280q-70 -66 -147 -93.5t-216 -27.5h-610v137h235q129 63 129 234q0 168 -186 323h-240z" />
<glyph unicode="&#xa4;" d="M53 1151l84 84l166 -166q127 102 287 102q158 0 284 -100l164 164l84 -84l-161 -164q102 -129 102 -286.5t-105 -284.5l164 -162l-84 -84l-159 160q-133 -100 -289 -101q-158 0 -289 101l-162 -160l-84 84l164 162q-102 129 -102 284q0 166 102 287zM262 698 q0 -131 98.5 -226t229.5 -95t228 95t97 228q0 135 -96 230.5t-229 95.5t-230.5 -95t-97.5 -231v-2z" />
<glyph unicode="&#xa5;" d="M45 1516h178l365 -642l370 642h179l-359 -601h324v-129h-395l-35 -69v-133h430v-129h-432v-455h-166v455h-426v129h426v131l-37 71h-389v129h321z" />
<glyph unicode="&#xa6;" horiz-adv-x="1136" d="M485 358h166v-716h-166v716zM485 666v716h166v-716h-166z" />
<glyph unicode="&#xa7;" horiz-adv-x="1239" d="M109 637q0 80 46 166t156 151q-84 102 -84 224q0 172 119 268t289 96q186 0 297.5 -102.5t116.5 -265.5h-150q-27 227 -270 227q-109 0 -180.5 -59.5t-73.5 -161.5q0 -61 32.5 -107.5t63.5 -65t82 -42.5l330 -152q43 -20 70.5 -37.5t75.5 -56.5t74.5 -98.5t26.5 -131.5 q0 -195 -188 -319q129 -106 129 -270t-120 -276.5t-320 -112.5q-203 0 -343.5 116.5t-137.5 349.5h149q0 -164 86 -243.5t242 -79.5q137 0 215 67.5t82 176.5q-2 76 -50.5 128t-152.5 101l-383 176q-37 18 -52.5 26.5t-56.5 38t-61.5 61.5t-39.5 87t-19 121zM250 651 q2 -141 141 -207l447 -204q57 25 105 88t48 139v2q0 45 -15 82t-48 63.5t-57.5 41t-67.5 34.5l-397 187q-152 -74 -156 -226z" />
<glyph unicode="&#xa8;" horiz-adv-x="1136" d="M301 1270v262h148v-262h-148zM686 1270v262h148v-262h-148z" />
<glyph unicode="&#xa9;" horiz-adv-x="1638" d="M37 758q0 324 225 553t559 229h2q328 0 553.5 -228.5t225.5 -553.5q0 -330 -228.5 -556.5t-554.5 -226.5q-328 0 -555 226.5t-227 556.5zM131 758q0 -291 199.5 -493t488.5 -202q287 0 486.5 201t199.5 494q0 287 -196.5 490.5t-487.5 203.5h-2q-295 0 -491.5 -203.5 t-196.5 -490.5zM391 758q0 205 120 337t320 132q160 0 269.5 -90t124.5 -224h-109q-25 115 -105.5 165t-179.5 50q-147 0 -238 -103t-91 -265q0 -178 96 -273.5t231 -95.5q23 0 48.5 3t69.5 19.5t78 44t64.5 84t40.5 130.5h111q-14 -174 -132 -276.5t-284 -102.5 q-182 0 -308 124t-126 341z" />
<glyph unicode="&#xaa;" horiz-adv-x="862" d="M53 1200q0 147 100.5 244.5t243.5 97.5q176 0 260 -153v137h105v-652h-105v134q-76 -150 -260 -150q-150 0 -247 100.5t-97 241.5zM160 1194q0 -86 67.5 -162t182.5 -76q156 0 223 134q25 53 24 110q0 55 -20 103q-31 63 -92.5 102t-136.5 39q-102 0 -175 -69.5 t-73 -178.5v-2z" />
<glyph unicode="&#xab;" horiz-adv-x="768" d="M80 571l221 390h127l-221 -390l221 -385h-127zM354 571l224 390h127l-224 -390l224 -385h-127z" />
<glyph unicode="&#xac;" horiz-adv-x="1228" d="M100 649v148h1028v-533h-145v385h-883z" />
<glyph unicode="&#xad;" horiz-adv-x="555" d="M0 500v149h555v-149h-555z" />
<glyph unicode="&#xae;" horiz-adv-x="1638" d="M37 758q0 324 225 553t559 229h2q328 0 553.5 -228.5t225.5 -553.5q0 -330 -228.5 -556.5t-554.5 -226.5q-328 0 -555 226.5t-227 556.5zM131 758q0 -291 199.5 -493t488.5 -202q287 0 486.5 201t199.5 494q0 287 -195.5 490.5t-488.5 203.5h-2q-293 0 -490.5 -203.5 t-197.5 -490.5zM483 309v895h375q45 0 90 -8t100.5 -29.5t90.5 -75t35 -130.5q0 -156 -164 -220q76 -23 108.5 -70.5t36.5 -133.5q10 -139 14.5 -170t16.5 -58h-111q-14 25 -26 207q-2 47 -9.5 72.5t-29 54.5t-69.5 41t-126 12h-221v-387h-111zM594 778h225q4 0 27.5 2t37 3 t39 7.5t42 13.5t37 20.5t33 29.5t20.5 43t8 57q0 166 -223 166h-246v-342z" />
<glyph unicode="&#xaf;" horiz-adv-x="1136" d="M203 1329v127h731v-127h-731z" />
<glyph unicode="&#xb0;" horiz-adv-x="819" d="M117 1161q0 123 85 208t207.5 85t207.5 -85t85 -208v-2q0 -121 -85 -206t-207.5 -85t-207.5 85t-85 208zM213 1159q0 -82 57.5 -139t139.5 -57t139 57t57 141q0 82 -57 140.5t-139 58.5t-139.5 -58.5t-57.5 -140.5v-2z" />
<glyph unicode="&#xb1;" horiz-adv-x="1228" d="M98 -55v147h1032v-147h-1032zM98 561v148h443v362h147v-362h442v-148h-442v-358h-147v358h-443z" />
<glyph unicode="&#xb2;" horiz-adv-x="757" d="M74 606v99l344 337q119 121 119 209q0 74 -39 124t-125 50q-80 0 -126 -60t-46 -155h-121q0 127 59 207q82 115 240 115q135 0 213 -71.5t78 -198.5q0 -129 -131 -261q-55 -53 -154.5 -154.5t-132.5 -133.5h424v-107h-602z" />
<glyph unicode="&#xb3;" horiz-adv-x="757" d="M59 883h127q2 -92 57.5 -139.5t129.5 -47.5q86 0 135 51.5t49 131.5q0 68 -50 124t-147 56h-73v94h53q84 0 124 45t40 94q0 53 -34 92t-93 41q-63 2 -98 -36.5t-39 -98.5h-125q4 127 87 184.5t177 57.5q104 0 176 -65.5t72 -161.5q0 -125 -117 -189q78 -29 126 -95.5 t48 -146.5q0 -123 -90 -203.5t-223 -80.5q-172 0 -258 119q-50 74 -54 174z" />
<glyph unicode="&#xb4;" horiz-adv-x="1136" d="M322 1327l487 277l55 -111l-493 -264z" />
<glyph unicode="&#xb5;" horiz-adv-x="1198" d="M141 -377v1479h152v-596q0 -203 67 -289q84 -106 236 -106q150 0 233.5 118.5t83.5 341.5v531h150v-1102h-145v209q-90 -233 -322 -234q-205 0 -303 160v-158v-354h-152z" />
<glyph unicode="&#xb6;" horiz-adv-x="1243" d="M12 1108q0 115 44 198t119 127t157 63.5t172 19.5h581v-119h-120v-1639h-127v1637h-244v-1637h-127v953q-201 0 -328 101t-127 296z" />
<glyph unicode="&#xb7;" horiz-adv-x="591" d="M217 408v227h160v-227h-160z" />
<glyph unicode="&#xb8;" horiz-adv-x="1136" d="M393 -293h88q18 -68 86 -67q37 0 61.5 24.5t26.5 69.5q-2 37 -26.5 60.5t-59.5 23.5q-47 0 -73 -45l-76 30l92 197h96l-53 -115q12 6 33 6q68 0 111.5 -45t43.5 -112q0 -70 -46 -123t-130 -53q-18 0 -37.5 4t-51.5 17t-55.5 46t-29.5 82z" />
<glyph unicode="&#xb9;" horiz-adv-x="757" d="M147 1409v107h306v-910h-121v803h-185z" />
<glyph unicode="&#xba;" horiz-adv-x="862" d="M86 1196v2q0 143 95 243.5t247 100.5q156 0 252 -101.5t96 -240.5q0 -143 -101.5 -242.5t-246.5 -99.5t-243.5 100.5t-98.5 237.5zM190 1194q0 -96 70 -167t168 -71t170 70t74 174q-2 100 -69.5 172t-170.5 72q-98 0 -170 -69.5t-72 -178.5v-2z" />
<glyph unicode="&#xbb;" horiz-adv-x="768" d="M63 184l222 385l-222 389h127l222 -389l-222 -385h-127zM338 184l223 385l-223 389h127l223 -389l-223 -385h-127z" />
<glyph unicode="&#xbc;" horiz-adv-x="1568" d="M92 1409v107h305v-910h-121v803h-184zM324 0l661 1516h133l-663 -1516h-131zM809 168v88l451 653h124v-643h93v-98h-93v-168h-122v168h-453zM944 266h320v488z" />
<glyph unicode="&#xbd;" horiz-adv-x="1650" d="M92 1409v107h305v-910h-121v803h-184zM324 0l661 1516h133l-663 -1516h-131zM956 0v98q117 113 347 338q119 121 118 209q0 74 -40 124t-126 50q-80 0 -125 -60.5t-45 -154.5h-122q4 117 51 197q82 125 250 125q135 0 212.5 -72t77.5 -199q0 -129 -131 -260 q-55 -53 -154.5 -154.5t-131.5 -134.5h424v-106h-605z" />
<glyph unicode="&#xbe;" horiz-adv-x="1783" d="M82 883h127q2 -92 57.5 -139.5t128.5 -47.5q86 0 135.5 51.5t49.5 131.5q0 68 -50.5 124t-146.5 56h-74v94h53q84 0 124 45t40 94q0 53 -33.5 92t-93.5 41q-63 2 -98 -36.5t-39 -98.5h-125q4 127 87 184.5t177 57.5q104 0 176 -65.5t72 -161.5q0 -125 -117 -189 q78 -29 126.5 -95.5t48.5 -146.5q0 -123 -90.5 -203.5t-223.5 -80.5q-78 0 -149.5 32.5t-110.5 92.5q-47 68 -51 168zM549 0l659 1516h135l-663 -1516h-131zM1030 168v88l451 653h125v-643h92v-98h-92v-168h-123v168h-453zM1163 266h322v490z" />
<glyph unicode="&#xbf;" horiz-adv-x="1136" d="M123 -8q0 80 41 158.5t81 121.5t117 115q68 66 104 132.5t42 103t8 92.5h160q-4 -117 -43 -209t-152 -201q-76 -76 -100.5 -102.5t-55 -83t-32.5 -115.5q0 -121 81 -203t208 -82q106 0 192 65.5t105 186.5q4 37 4 58h166q0 -10 -1 -26.5t-1 -25.5q-20 -201 -161 -309 t-311 -108q-193 0 -322.5 126t-129.5 306zM518 877v225h158v-225h-158z" />
<glyph unicode="&#xc0;" horiz-adv-x="1456" d="M16 0l633 1516h164l627 -1516h-185l-176 426h-706l-174 -426h-183zM424 565h604l-303 760zM426 1845l53 111l490 -275l-49 -98z" />
<glyph unicode="&#xc1;" horiz-adv-x="1456" d="M16 0l633 1516h164l627 -1516h-185l-176 426h-706l-174 -426h-183zM424 565h604l-303 760zM487 1686l488 276l55 -111l-491 -264z" />
<glyph unicode="&#xc2;" horiz-adv-x="1456" d="M16 0l633 1516h164l627 -1516h-185l-176 426h-706l-174 -426h-183zM313 1626l361 272h110l359 -272h-170l-246 168l-244 -168h-170zM424 565h604l-303 760z" />
<glyph unicode="&#xc3;" horiz-adv-x="1456" d="M16 0l633 1516h164l627 -1516h-185l-176 426h-706l-174 -426h-183zM340 1782q84 80 205 80q80 0 186 -37q98 -33 164 -33q96 0 156 59l65 -102q-88 -80 -207 -80q-72 0 -186 37q-102 33 -162 33q-90 0 -155 -62zM424 565h604l-303 760z" />
<glyph unicode="&#xc4;" horiz-adv-x="1456" d="M16 0l633 1516h164l627 -1516h-185l-176 426h-706l-174 -426h-183zM424 565h604l-303 760zM461 1628v262h147v-262h-147zM846 1628v262h147v-262h-147z" />
<glyph unicode="&#xc5;" horiz-adv-x="1456" d="M16 0l633 1516h164l627 -1516h-185l-176 426h-706l-174 -426h-183zM424 565h604l-303 760zM516 1769q0 88 62.5 149.5t148.5 61.5h2q86 0 147.5 -61t61.5 -150q0 -86 -61.5 -147t-149.5 -61t-149.5 61t-61.5 147zM610 1771.5q0 -47.5 35 -81t82 -33.5q49 0 83 33.5 t34 81.5q0 49 -34 83.5t-83 34.5h-2q-47 0 -81 -35.5t-34 -83z" />
<glyph unicode="&#xc6;" horiz-adv-x="1953" d="M-18 0l1050 1516h787v-150h-588v-526h584v-150h-584v-540h588v-150h-752v446h-578l-305 -446h-202zM571 582h496v727z" />
<glyph unicode="&#xc7;" horiz-adv-x="1640" d="M82 758q0 328 225 556t563 228q256 0 437.5 -135t261.5 -307h-183q-23 41 -62.5 85t-103 94t-155.5 82t-195 32q-264 0 -442 -183.5t-178 -449.5q0 -270 178 -453.5t442 -183.5q111 0 207.5 33.5t159.5 89t95 91.5t54 71h183q-78 -182 -264.5 -307.5t-427.5 -127.5 l-43 -88q14 6 34 6q66 0 112 -45t46 -112q0 -70 -46 -123t-130 -53q-18 0 -38.5 4t-51.5 17t-54.5 46t-31.5 82h88q18 -68 88 -67q35 0 60.5 24.5t25.5 69.5q0 37 -24.5 60.5t-61.5 23.5q-45 0 -74 -45l-74 30l82 177q-303 29 -502.5 250t-199.5 528z" />
<glyph unicode="&#xc8;" horiz-adv-x="1107" d="M152 0v1516h839v-150h-672v-526h668v-150h-668v-540h672v-150h-839zM258 1866l53 110l490 -274l-49 -98z" />
<glyph unicode="&#xc9;" horiz-adv-x="1107" d="M152 0v1516h839v-150h-672v-526h668v-150h-668v-540h672v-150h-839zM307 1706l488 276l55 -110l-494 -264z" />
<glyph unicode="&#xca;" horiz-adv-x="1107" d="M139 1647l361 272h110l359 -272h-170l-246 168l-244 -168h-170zM152 0v1516h839v-150h-672v-526h668v-150h-668v-540h672v-150h-839z" />
<glyph unicode="&#xcb;" horiz-adv-x="1107" d="M152 0v1516h839v-150h-672v-526h668v-150h-668v-540h672v-150h-839zM287 1649v262h147v-262h-147zM672 1649v262h147v-262h-147z" />
<glyph unicode="&#xcc;" horiz-adv-x="473" d="M-104 1860l55 110l487 -276l-49 -97zM152 0v1516h167v-1516h-167z" />
<glyph unicode="&#xcd;" horiz-adv-x="473" d="M35 1700l487 276l53 -112l-491 -262zM152 0v1516h167v-1516h-167z" />
<glyph unicode="&#xce;" horiz-adv-x="473" d="M-178 1632l360 273h111l358 -273h-170l-245 168l-244 -168h-170zM152 0v1516h167v-1516h-167z" />
<glyph unicode="&#xcf;" horiz-adv-x="473" d="M-31 1642v261h148v-261h-148zM152 0v1516h167v-1516h-167zM354 1642v261h148v-261h-148z" />
<glyph unicode="&#xd0;" horiz-adv-x="1464" d="M0 692v150h152v674h454q399 0 594 -228q182 -201 182 -528q0 -348 -198.5 -554t-556.5 -206h-475v692h-152zM319 150h302q287 0 439 162.5t152 441.5q0 281 -147 442q-160 170 -444 170h-302v-524h418v-150h-418v-542z" />
<glyph unicode="&#xd1;" horiz-adv-x="1525" d="M152 0v1516h172l888 -1266l-2 1266h164v-1516h-164l-899 1276l4 -1276h-163zM377 1776q82 78 205 77q82 0 186 -34q94 -33 162 -33q100 0 155 59l66 -102q-82 -80 -207 -80q-72 0 -186 37q-96 31 -162 31q-92 0 -156 -60z" />
<glyph unicode="&#xd2;" horiz-adv-x="1742" d="M80 752v2q0 344 231.5 566t558.5 222q334 0 562.5 -226t228.5 -558q0 -334 -227.5 -559.5t-563.5 -225.5q-334 0 -562 226.5t-228 552.5zM250 758q0 -268 179 -451.5t443 -183.5q266 0 443.5 185.5t177.5 449.5t-178 449.5t-445 185.5q-264 0 -442 -184.5t-178 -448.5v-2 zM575 1866l54 110l489 -274l-49 -98z" />
<glyph unicode="&#xd3;" horiz-adv-x="1742" d="M80 752v2q0 344 231.5 566t558.5 222q334 0 562.5 -226t228.5 -558q0 -334 -227.5 -559.5t-563.5 -225.5q-334 0 -562 226.5t-228 552.5zM250 758q0 -268 179 -451.5t443 -183.5q266 0 443.5 185.5t177.5 449.5t-178 449.5t-445 185.5q-264 0 -442 -184.5t-178 -448.5v-2 zM625 1706l487 276l55 -110l-493 -264z" />
<glyph unicode="&#xd4;" horiz-adv-x="1742" d="M80 752v2q0 344 231.5 566t558.5 222q334 0 562.5 -226t228.5 -558q0 -334 -227.5 -559.5t-563.5 -225.5q-334 0 -562 226.5t-228 552.5zM250 758q0 -268 179 -451.5t443 -183.5q266 0 443.5 185.5t177.5 449.5t-178 449.5t-445 185.5q-264 0 -442 -184.5t-178 -448.5v-2 zM457 1638l360 275h111l358 -275h-170l-246 170l-243 -170h-170z" />
<glyph unicode="&#xd5;" horiz-adv-x="1742" d="M80 752v2q0 344 231.5 566t558.5 222q334 0 562.5 -226t228.5 -558q0 -334 -227.5 -559.5t-563.5 -225.5q-334 0 -562 226.5t-228 552.5zM250 758q0 -268 179 -451.5t443 -183.5q266 0 443.5 185.5t177.5 449.5t-178 449.5t-445 185.5q-264 0 -442 -184.5t-178 -448.5v-2 zM483 1776q82 78 205 77q86 0 186 -34q98 -33 164 -33q100 0 156 59l66 -102q-86 -80 -207 -80q-72 0 -187 37q-96 31 -161 31q-92 0 -156 -60z" />
<glyph unicode="&#xd6;" horiz-adv-x="1742" d="M80 752v2q0 344 231.5 566t558.5 222q334 0 562.5 -226t228.5 -558q0 -334 -227.5 -559.5t-563.5 -225.5q-334 0 -562 226.5t-228 552.5zM250 758q0 -268 179 -451.5t443 -183.5q266 0 443.5 185.5t177.5 449.5t-178 449.5t-445 185.5q-264 0 -442 -184.5t-178 -448.5v-2 zM604 1649v262h148v-262h-148zM989 1649v262h148v-262h-148z" />
<glyph unicode="&#xd7;" horiz-adv-x="1228" d="M106 104l402 404l-402 399l105 107l403 -402l404 402l104 -107l-403 -399l401 -404l-102 -104l-404 403l-403 -403z" />
<glyph unicode="&#xd8;" horiz-adv-x="1742" d="M80 758q0 336 229.5 560t560.5 224q227 0 414 -112l123 167h174l-184 -249q117 -98 190.5 -250t73.5 -340q0 -332 -228.5 -558.5t-562.5 -226.5q-227 0 -401 107l-121 -162h-174l180 242q-123 100 -198.5 254t-75.5 344zM250 760q0 -141 54 -263t151 -202l733 1008 q-131 90 -318 90q-266 0 -443 -184.5t-177 -448.5zM563 207q133 -84 309 -84q266 0 443.5 186.5t177.5 448.5q0 270 -195 459z" />
<glyph unicode="&#xd9;" horiz-adv-x="1302" d="M147 555v961h170v-961q0 -74 2.5 -110.5t18.5 -91t51 -103.5q41 -57 111.5 -92t152.5 -35t151.5 33.5t108.5 91.5q35 47 51.5 101t18.5 92t2 114v961h168v-961q2 -156 -33 -271.5t-139 -195.5q-135 -115 -328 -115q-205 0 -334 115q-76 61 -115.5 145t-48 152t-8.5 170z M291 1845l53 111l490 -277l-50 -96z" />
<glyph unicode="&#xda;" horiz-adv-x="1302" d="M147 555v961h170v-961q0 -74 2.5 -110.5t18.5 -91t51 -103.5q41 -57 111.5 -92t152.5 -35t151.5 33.5t108.5 91.5q35 47 51.5 101t18.5 92t2 114v961h168v-961q2 -156 -33 -271.5t-139 -195.5q-135 -115 -328 -115q-205 0 -334 115q-76 61 -115.5 145t-48 152t-8.5 170z M428 1686l487 276l56 -111l-494 -264z" />
<glyph unicode="&#xdb;" horiz-adv-x="1302" d="M147 555v961h170v-961q0 -74 2.5 -110.5t18.5 -91t51 -103.5q41 -57 111.5 -92t152.5 -35t151.5 33.5t108.5 91.5q35 47 51.5 101t18.5 92t2 114v961h168v-961q2 -156 -33 -271.5t-139 -195.5q-135 -115 -328 -115q-205 0 -334 115q-76 61 -115.5 145t-48 152t-8.5 170z M236 1626l360 272h113l358 -272h-172l-244 168l-243 -168h-172z" />
<glyph unicode="&#xdc;" horiz-adv-x="1302" d="M147 555v961h170v-961q0 -74 2.5 -110.5t18.5 -91t51 -103.5q41 -57 111.5 -92t152.5 -35t151.5 33.5t108.5 91.5q35 47 51.5 101t18.5 92t2 114v961h168v-961q2 -156 -33 -271.5t-139 -195.5q-135 -115 -328 -115q-205 0 -334 115q-76 61 -115.5 145t-48 152t-8.5 170z M385 1628v262h147v-262h-147zM770 1628v262h148v-262h-148z" />
<glyph unicode="&#xdd;" horiz-adv-x="1198" d="M27 1516h184l389 -820l387 820h184l-487 -984v-532h-170v532zM418 1686l487 276l56 -111l-494 -264z" />
<glyph unicode="&#xde;" horiz-adv-x="1130" d="M137 0v1516h170v-279h230q166 0 250.5 -20.5t156.5 -75.5q74 -57 118 -155.5t44 -205t-43 -207t-113 -153.5q-76 -59 -159.5 -81t-239.5 -22h-244v-317h-170zM307 467h242q186 0 280 63q49 35 81 101.5t32 144.5q0 80 -31.5 146.5t-83.5 101.5q-98 63 -282 63h-238v-620z " />
<glyph unicode="&#xdf;" horiz-adv-x="1236" d="M143 0v938q0 178 20.5 270t76.5 164q63 84 159.5 129t198.5 45q193 0 309.5 -117.5t116.5 -293.5q0 -229 -199 -334q152 -25 241 -137.5t89 -255.5q0 -184 -134 -311.5t-337 -127.5q-147 2 -253.5 80t-135.5 236v-285h-152zM295 403h98q8 -147 95 -218.5t202 -73.5 q137 0 226.5 82.5t89.5 207.5q0 143 -101 230q-94 74 -287 76h-81v120h59q113 0 195.5 82t82.5 205q0 137 -78.5 214t-209.5 77q-76 0 -138.5 -34t-95.5 -89q-37 -61 -47 -128t-10 -185v-566z" />
<glyph unicode="&#xe0;" horiz-adv-x="1400" d="M80 551q0 246 161.5 414t409.5 168q164 0 285 -79t166 -184v232h151v-1102h-151v227q-63 -123 -182 -190.5t-269 -67.5q-258 0 -414.5 172t-156.5 410zM229 549q2 -106 47.5 -202.5t148.5 -166t247 -69.5q141 0 246.5 73.5t150.5 194.5q37 80 37 174q4 94 -35 176 q-47 117 -154.5 190.5t-248.5 73.5q-188 0 -313.5 -128t-125.5 -314v-2zM395 1487l54 110l489 -276l-49 -96z" />
<glyph unicode="&#xe1;" horiz-adv-x="1400" d="M80 551q0 246 161.5 414t409.5 168q164 0 285 -79t166 -184v232h151v-1102h-151v227q-63 -123 -182 -190.5t-269 -67.5q-258 0 -414.5 172t-156.5 410zM229 549q2 -106 47.5 -202.5t148.5 -166t247 -69.5q141 0 246.5 73.5t150.5 194.5q37 80 37 174q4 94 -35 176 q-47 117 -154.5 190.5t-248.5 73.5q-188 0 -313.5 -128t-125.5 -314v-2zM449 1327l487 277l55 -111l-493 -264z" />
<glyph unicode="&#xe2;" horiz-adv-x="1400" d="M80 551q0 246 161.5 414t409.5 168q164 0 285 -79t166 -184v232h151v-1102h-151v227q-63 -123 -182 -190.5t-269 -67.5q-258 0 -414.5 172t-156.5 410zM229 549q2 -106 47.5 -202.5t148.5 -166t247 -69.5q141 0 246.5 73.5t150.5 194.5q37 80 37 174q4 94 -35 176 q-47 117 -154.5 190.5t-248.5 73.5q-188 0 -313.5 -128t-125.5 -314v-2zM276 1268l361 272h111l358 -272h-170l-246 168l-244 -168h-170z" />
<glyph unicode="&#xe3;" horiz-adv-x="1400" d="M80 551q0 246 161.5 414t409.5 168q164 0 285 -79t166 -184v232h151v-1102h-151v227q-63 -123 -182 -190.5t-269 -67.5q-258 0 -414.5 172t-156.5 410zM229 549q2 -106 47.5 -202.5t148.5 -166t247 -69.5q141 0 246.5 73.5t150.5 194.5q37 80 37 174q4 94 -35 176 q-47 117 -154.5 190.5t-248.5 73.5q-188 0 -313.5 -128t-125.5 -314v-2zM307 1403q82 78 205 78q86 0 186 -35q94 -33 164 -33q96 0 156 60l63 -103q-86 -80 -207 -80q-72 0 -186 37q-102 33 -162 33q-88 0 -153 -62z" />
<glyph unicode="&#xe4;" horiz-adv-x="1400" d="M80 551q0 246 161.5 414t409.5 168q164 0 285 -79t166 -184v232h151v-1102h-151v227q-63 -123 -182 -190.5t-269 -67.5q-258 0 -414.5 172t-156.5 410zM229 549q2 -106 47.5 -202.5t148.5 -166t247 -69.5q141 0 246.5 73.5t150.5 194.5q37 80 37 174q4 94 -35 176 q-47 117 -154.5 190.5t-248.5 73.5q-188 0 -313.5 -128t-125.5 -314v-2zM412 1270v262h147v-262h-147zM797 1270v262h147v-262h-147z" />
<glyph unicode="&#xe5;" horiz-adv-x="1400" d="M80 551q0 246 161.5 414t409.5 168q164 0 285 -79t166 -184v232h151v-1102h-151v227q-63 -123 -182 -190.5t-269 -67.5q-258 0 -414.5 172t-156.5 410zM229 549q2 -106 47.5 -202.5t148.5 -166t247 -69.5q141 0 246.5 73.5t150.5 194.5q37 80 37 174q4 94 -35 176 q-47 117 -154.5 190.5t-248.5 73.5q-188 0 -313.5 -128t-125.5 -314v-2zM463 1411q0 88 62.5 149.5t148.5 61.5h2q86 0 147.5 -61.5t61.5 -149.5q0 -86 -61.5 -147.5t-149.5 -61.5t-149.5 61.5t-61.5 147.5zM557 1413q0 -47 34 -81t83 -34t83 34t34 81q0 49 -34 84t-83 35 h-2q-47 0 -81 -36t-34 -83z" />
<glyph unicode="&#xe6;" horiz-adv-x="2320" d="M80 549q0 250 164 417t409 167q317 0 447 -279v248h141v-246q131 276 432 277q246 0 408 -172q172 -182 160 -449h-994q12 -119 60.5 -205t116 -128t130 -60.5t119.5 -18.5q229 0 377 228h158q-68 -156 -205 -257.5t-317 -101.5q-154 0 -270 77t-175 214v-260h-141v260 q-43 -125 -169 -208t-278 -83q-143 0 -256.5 55.5t-180 143.5t-101.5 186.5t-35 194.5zM229 551q0 -190 126 -315t317 -125q176 0 303 131t127 309q0 180 -125 309q-127 133 -309 133q-193 0 -316 -131t-123 -309v-2zM1251 623h838q-35 186 -146.5 282t-273.5 96 q-188 0 -307 -135q-82 -89 -111 -243z" />
<glyph unicode="&#xe7;" horiz-adv-x="1290" d="M78 553q2 246 168 413t413 167q193 0 349.5 -110t212.5 -302h-156q-49 131 -161.5 200.5t-237.5 67.5q-176 0 -312 -123q-55 -53 -90 -138t-35 -177q0 -193 126 -316.5t309 -123.5q150 2 255 77.5t144 184.5h158q-55 -176 -202 -286t-347 -116l-41 -86q16 6 35 6 q66 0 111.5 -45t45.5 -112q0 -70 -46 -123t-130 -53q-18 0 -38.5 4t-51.5 17t-54.5 46t-31.5 82h88q18 -68 88 -67q37 0 61.5 24.5t24.5 69.5q0 37 -24.5 60.5t-61.5 23.5q-45 0 -74 -45l-73 30l80 174q-217 29 -359.5 188t-142.5 388z" />
<glyph unicode="&#xe8;" horiz-adv-x="1286" d="M63 549q0 244 167 414t413 170q242 0 404 -156q94 -92 139 -214t33 -255h-1004q6 -193 139 -301.5t291 -106.5q127 0 226.5 59.5t152.5 168.5h158q-76 -176 -224 -269q-139 -90 -313 -90q-182 0 -318.5 89t-200 218.5t-63.5 272.5zM217 629h852q-8 150 -133 264.5 t-291 110.5q-174 0 -296 -110.5t-132 -264.5zM348 1487l53 110l490 -276l-49 -96z" />
<glyph unicode="&#xe9;" horiz-adv-x="1286" d="M63 549q0 244 167 414t413 170q242 0 404 -156q94 -92 139 -214t33 -255h-1004q6 -193 139 -301.5t291 -106.5q127 0 226.5 59.5t152.5 168.5h158q-76 -176 -224 -269q-139 -90 -313 -90q-182 0 -318.5 89t-200 218.5t-63.5 272.5zM217 629h852q-8 150 -133 264.5 t-291 110.5q-174 0 -296 -110.5t-132 -264.5zM389 1327l488 277l55 -111l-492 -264z" />
<glyph unicode="&#xea;" horiz-adv-x="1286" d="M63 549q0 244 167 414t413 170q242 0 404 -156q94 -92 139 -214t33 -255h-1004q6 -193 139 -301.5t291 -106.5q127 0 226.5 59.5t152.5 168.5h158q-76 -176 -224 -269q-139 -90 -313 -90q-182 0 -318.5 89t-200 218.5t-63.5 272.5zM217 629h852q-8 150 -133 264.5 t-291 110.5q-174 0 -296 -110.5t-132 -264.5zM227 1268l361 272h112l359 -272h-172l-244 168l-244 -168h-172z" />
<glyph unicode="&#xeb;" horiz-adv-x="1286" d="M63 549q0 244 167 414t413 170q242 0 404 -156q94 -92 139 -214t33 -255h-1004q6 -193 139 -301.5t291 -106.5q127 0 226.5 59.5t152.5 168.5h158q-76 -176 -224 -269q-139 -90 -313 -90q-182 0 -318.5 89t-200 218.5t-63.5 272.5zM217 629h852q-8 150 -133 264.5 t-291 110.5q-174 0 -296 -110.5t-132 -264.5zM369 1270v262h149v-262h-149zM756 1270v262h147v-262h-147z" />
<glyph unicode="&#xec;" horiz-adv-x="446" d="M-115 1487l54 110l489 -276l-49 -96zM147 0v1102h152v-1102h-152z" />
<glyph unicode="&#xed;" horiz-adv-x="446" d="M16 1327l488 277l55 -111l-493 -264zM147 0v1102h152v-1102h-152z" />
<glyph unicode="&#xee;" horiz-adv-x="446" d="M-190 1268l360 272h111l358 -272h-170l-246 168l-243 -168h-170zM147 0v1102h152v-1102h-152z" />
<glyph unicode="&#xef;" horiz-adv-x="446" d="M-43 1270v262h147v-262h-147zM147 0v1102h152v-1102h-152zM342 1270v262h147v-262h-147z" />
<glyph unicode="&#xf0;" horiz-adv-x="1329" d="M80 549q2 260 161.5 416.5t395.5 160.5q98 0 193.5 -39.5t156.5 -109.5q-29 59 -86 117q-104 113 -244 186l-467 -147v112l342 111q-111 53 -294 119l161 51q158 -53 297 -129l416 129v-113l-295 -94q225 -135 338 -340q96 -178 96 -401q0 -270 -172 -436.5t-415 -170.5 q-242 0 -412 156t-172 422zM229 551q0 -186 122 -313t314.5 -127t313.5 130t121 312q0 178 -126 309t-304 131q-195 -2 -318 -129t-123 -311v-2z" />
<glyph unicode="&#xf1;" horiz-adv-x="1306" d="M147 0v1102h144q0 -123 -2 -197q49 109 156.5 169.5t252.5 58.5q240 -2 351.5 -143.5t111.5 -362.5v-627h-149v596q0 186 -88 291.5t-267 103.5q-170 -2 -264 -99t-94 -269v-623h-152zM266 1403q82 78 205 78q86 0 186 -35q94 -33 164 -33q96 0 156 60l63 -103 q-86 -80 -206 -80q-72 0 -187 37q-102 33 -162 33q-88 0 -153 -62z" />
<glyph unicode="&#xf2;" horiz-adv-x="1329" d="M80 551v2q0 238 163 409t421 171q260 0 422.5 -171t162.5 -411t-162.5 -410t-422.5 -170q-258 0 -421 170t-163 410zM229 549q0 -186 125 -312t309.5 -126t309.5 125.5t125 314t-125 314.5t-309.5 126t-309.5 -126t-125 -314v-2zM369 1487l55 110l487 -276l-49 -96z" />
<glyph unicode="&#xf3;" horiz-adv-x="1329" d="M80 551v2q0 238 163 409t421 171q260 0 422.5 -171t162.5 -411t-162.5 -410t-422.5 -170q-258 0 -421 170t-163 410zM229 549q0 -186 125 -312t309.5 -126t309.5 125.5t125 314t-125 314.5t-309.5 126t-309.5 -126t-125 -314v-2zM412 1327l487 277l55 -111l-493 -264z " />
<glyph unicode="&#xf4;" horiz-adv-x="1329" d="M80 551v2q0 238 163 409t421 171q260 0 422.5 -171t162.5 -411t-162.5 -410t-422.5 -170q-258 0 -421 170t-163 410zM229 549q0 -186 125 -312t309.5 -126t309.5 125.5t125 314t-125 314.5t-309.5 126t-309.5 -126t-125 -314v-2zM250 1268l360 272h113l356 -272h-170 l-243 168l-244 -168h-172z" />
<glyph unicode="&#xf5;" horiz-adv-x="1329" d="M80 551v2q0 238 163 409t421 171q260 0 422.5 -171t162.5 -411t-162.5 -410t-422.5 -170q-258 0 -421 170t-163 410zM229 549q0 -186 125 -312t309.5 -126t309.5 125.5t125 314t-125 314.5t-309.5 126t-309.5 -126t-125 -314v-2zM279 1403q82 78 204 78q82 0 187 -35 q94 -33 161 -33q96 0 156 60l66 -103q-86 -80 -207 -80q-72 0 -187 37q-102 33 -161 33q-90 0 -156 -62z" />
<glyph unicode="&#xf6;" horiz-adv-x="1329" d="M80 551v2q0 238 163 409t421 171q260 0 422.5 -171t162.5 -411t-162.5 -410t-422.5 -170q-258 0 -421 170t-163 410zM229 549q0 -186 125 -312t309.5 -126t309.5 125.5t125 314t-125 314.5t-309.5 126t-309.5 -126t-125 -314v-2zM399 1270v262h148v-262h-148zM784 1270 v262h148v-262h-148z" />
<glyph unicode="&#xf7;" horiz-adv-x="1228" d="M100 440v148h1028v-148h-1028zM541 -39v219h147v-219h-147zM541 848v219h147v-219h-147z" />
<glyph unicode="&#xf8;" horiz-adv-x="1329" d="M80 551q0 240 163 411t423 171q172 0 290 -76l82 117h158l-135 -191q188 -172 188 -432q0 -240 -162.5 -411t-420.5 -171q-166 0 -293 76l-84 -115h-160l139 189q-188 162 -188 432zM229 551q0 -197 136 -311l505 694q-90 57 -204 57q-186 0 -311.5 -126t-125.5 -314z M459 166q90 -55 205 -55q188 0 311 127t123 313q0 197 -133 309z" />
<glyph unicode="&#xf9;" horiz-adv-x="1308" d="M145 477v625h150v-596q0 -186 87 -291.5t267 -103.5q172 2 266.5 99t94.5 269v623h151v-1102h-143v197q-47 -109 -153.5 -169.5t-254.5 -58.5q-242 4 -353.5 145.5t-111.5 362.5zM293 1487l55 110l488 -276l-50 -96z" />
<glyph unicode="&#xfa;" horiz-adv-x="1308" d="M145 477v625h150v-596q0 -186 87 -291.5t267 -103.5q172 2 266.5 99t94.5 269v623h151v-1102h-143v197q-47 -109 -153.5 -169.5t-254.5 -58.5q-242 4 -353.5 145.5t-111.5 362.5zM432 1327l488 277l55 -111l-494 -264z" />
<glyph unicode="&#xfb;" horiz-adv-x="1308" d="M145 477v625h150v-596q0 -186 87 -291.5t267 -103.5q172 2 266.5 99t94.5 269v623h151v-1102h-143v197q-47 -109 -153.5 -169.5t-254.5 -58.5q-242 4 -353.5 145.5t-111.5 362.5zM240 1268l360 272h111l358 -272h-170l-246 168l-243 -168h-170z" />
<glyph unicode="&#xfc;" horiz-adv-x="1308" d="M145 477v625h150v-596q0 -186 87 -291.5t267 -103.5q172 2 266.5 99t94.5 269v623h151v-1102h-143v197q-47 -109 -153.5 -169.5t-254.5 -58.5q-242 4 -353.5 145.5t-111.5 362.5zM387 1270v262h148v-262h-148zM772 1270v262h148v-262h-148z" />
<glyph unicode="&#xfd;" horiz-adv-x="1048" d="M16 1102h162l346 -891l357 891h166l-629 -1520h-164l188 438zM342 1327l487 277l56 -111l-492 -264z" />
<glyph unicode="&#xfe;" horiz-adv-x="1404" d="M147 -418v1934h150v-492v-152q72 137 201 199t258 62q254 0 411.5 -173.5t157.5 -412.5q0 -246 -162 -412t-405 -166q-160 0 -279 73t-182 183v-139v-504h-150zM293 547q0 -172 123 -301q129 -135 319.5 -135t314.5 127t124 313v2q0 184 -123 311t-316 127 q-184 0 -311 -127q-131 -124 -131 -317z" />
<glyph unicode="&#xff;" horiz-adv-x="1048" d="M16 1102h162l346 -891l357 891h166l-629 -1520h-164l188 438zM258 1270v262h148v-262h-148zM643 1270v262h148v-262h-148z" />
<glyph unicode="&#x152;" horiz-adv-x="2349" d="M80 756q0 334 221 560t559 226q223 0 390 -105.5t231 -267.5v174v173h751v-150h-587v-526h581v-150h-581v-540h587v-150h-751v174v172q-82 -172 -251 -272.5t-368 -100.5q-334 0 -558 223.5t-224 559.5zM250 754q0 -262 173 -446.5t439 -184.5t441.5 187.5t175.5 451.5 q-4 268 -176.5 449.5t-440.5 181.5q-266 0 -439 -183.5t-173 -453.5v-2z" />
<glyph unicode="&#x153;" horiz-adv-x="2312" d="M80 549q0 246 165 415t421 169q172 0 306 -91.5t193 -238.5q20 51 57.5 101t95.5 103.5t148 87t197 33.5q242 0 410 -174q180 -188 161 -440h-991q10 -195 133 -304.5t289 -109.5q125 0 226.5 60.5t146.5 169.5h157q-74 -168 -194 -254q-154 -106 -334 -107 q-188 0 -317 94.5t-183 235.5q-70 -160 -204 -245t-301 -85q-121 0 -221.5 39t-166 99.5t-110.5 139.5t-64.5 154.5t-19.5 147.5zM229 549q0 -184 126 -311t311 -127q186 0 308 134t122 304t-122 307t-308 137q-182 0 -309.5 -125t-127.5 -317v-2zM1247 625h832 q-12 135 -124 252.5t-292 117.5q-160 0 -278 -103t-138 -267z" />
<glyph unicode="&#x178;" horiz-adv-x="1198" d="M27 1516h184l389 -820l387 820h184l-487 -984v-532h-170v532zM332 1628v262h149v-262h-149zM719 1628v262h147v-262h-147z" />
<glyph unicode="&#x2c6;" horiz-adv-x="1136" d="M154 1268l360 272h111l358 -272h-170l-246 168l-243 -168h-170z" />
<glyph unicode="&#x2dc;" horiz-adv-x="1136" d="M180 1403q82 78 205 78q86 0 186 -35q98 -33 164 -33q96 0 156 60l65 -103q-88 -80 -206 -80q-72 0 -187 37q-102 33 -162 33q-90 0 -155 -62z" />
<glyph unicode="&#x2000;" horiz-adv-x="991" />
<glyph unicode="&#x2001;" horiz-adv-x="1982" />
<glyph unicode="&#x2002;" horiz-adv-x="991" />
<glyph unicode="&#x2003;" horiz-adv-x="1982" />
<glyph unicode="&#x2004;" horiz-adv-x="659" />
<glyph unicode="&#x2005;" horiz-adv-x="495" />
<glyph unicode="&#x2006;" horiz-adv-x="329" />
<glyph unicode="&#x2007;" horiz-adv-x="329" />
<glyph unicode="&#x2008;" horiz-adv-x="247" />
<glyph unicode="&#x2009;" horiz-adv-x="395" />
<glyph unicode="&#x200a;" horiz-adv-x="108" />
<glyph unicode="&#x2010;" horiz-adv-x="555" d="M0 500v149h555v-149h-555z" />
<glyph unicode="&#x2011;" horiz-adv-x="555" d="M0 500v149h555v-149h-555z" />
<glyph unicode="&#x2012;" horiz-adv-x="555" d="M0 500v149h555v-149h-555z" />
<glyph unicode="&#x2013;" horiz-adv-x="1024" d="M72 500v149h880v-149h-880z" />
<glyph unicode="&#x2014;" horiz-adv-x="2048" d="M72 500v149h1904v-149h-1904z" />
<glyph unicode="&#x2018;" horiz-adv-x="591" d="M182 1516h142l143 -381h-125z" />
<glyph unicode="&#x2019;" horiz-adv-x="591" d="M125 1135l143 381h144l-160 -381h-127z" />
<glyph unicode="&#x201a;" horiz-adv-x="591" d="M125 -168l143 381h144l-160 -381h-127z" />
<glyph unicode="&#x201c;" horiz-adv-x="882" d="M209 1516h141l146 -381h-127zM457 1516h141l145 -381h-127z" />
<glyph unicode="&#x201d;" horiz-adv-x="882" d="M139 1135l146 381h141l-160 -381h-127zM387 1135l145 381h142l-160 -381h-127z" />
<glyph unicode="&#x201e;" horiz-adv-x="882" d="M139 -168l146 381h141l-160 -381h-127zM387 -168l145 381h142l-160 -381h-127z" />
<glyph unicode="&#x2022;" horiz-adv-x="1015" d="M285 766q0 92 64.5 157.5t160.5 65.5h2q90 0 154.5 -65.5t64.5 -157.5t-64.5 -156.5t-158.5 -64.5t-158.5 65.5t-64.5 155.5z" />
<glyph unicode="&#x2026;" horiz-adv-x="2048" d="M262 0v227h160v-227h-160zM944 0v227h160v-227h-160zM1626 0v227h160v-227h-160z" />
<glyph unicode="&#x202f;" horiz-adv-x="395" />
<glyph unicode="&#x2039;" horiz-adv-x="489" d="M74 569l223 389h127l-223 -389l223 -385h-127z" />
<glyph unicode="&#x203a;" horiz-adv-x="489" d="M68 184l221 385l-221 389h127l221 -389l-221 -385h-127z" />
<glyph unicode="&#x205f;" horiz-adv-x="495" />
<glyph unicode="&#x20ac;" horiz-adv-x="1134" d="M16 557l52 129h131v143h-183l52 129h133q0 113 30.5 214.5t91 185.5t163 134t233.5 50q141 0 256 -59.5t168 -132.5l-60 -148q-121 203 -364 203q-125 0 -211 -72.5t-121 -169t-35 -205.5h637l-51 -129h-588v-143h531l-52 -129h-475q4 -186 74 -291q102 -156 291 -155 q94 0 190.5 41t134.5 106v-178q-33 -37 -116.5 -72t-208.5 -35q-141 0 -261 64.5t-190 204.5q-57 115 -65 315h-187z" />
<glyph unicode="&#x2122;" horiz-adv-x="2027" d="M27 1411v105h585v-105h-231v-805h-123v805h-231zM739 606v910h158l346 -740l344 740h158v-910h-117v760l-346 -760h-80l-348 756v-756h-115z" />
<glyph unicode="&#xe000;" horiz-adv-x="1100" d="M0 1100h1100v-1100h-1100v1100z" />
<glyph unicode="&#xfb01;" horiz-adv-x="946" d="M12 981v121h162v90q0 350 387 350v-121q-39 -2 -55.5 -4t-58 -15t-63.5 -36t-41 -72t-19 -116v-76h475v-1102h-152v981h-323v-981h-150v981h-162zM647 1305v211h152v-211h-152z" />
<glyph unicode="&#xfb02;" horiz-adv-x="946" d="M12 981v121h162v90q0 350 387 350v-121q-39 -2 -55.5 -4t-58 -15t-63.5 -36t-41 -72t-19 -116v-76h323v414h152v-1516h-152v981h-323v-981h-150v981h-162z" />
<glyph unicode="&#xfb03;" horiz-adv-x="1593" d="M1294 0v1102h152v-1102h-152zM1294 1305v211h152v-211h-152zM585 981v121h162v90q0 350 387 350v-121q-39 -2 -55.5 -4t-58 -15t-63.5 -36t-41 -72t-19 -116v-76h237v-121h-237v-981h-150v981h-162zM12 981v121h162v90q0 350 387 350v-121q-39 -2 -55.5 -4t-58 -15 t-63.5 -36t-41 -72t-19 -116v-76h237v-121h-237v-981h-150v981h-162z" />
<glyph unicode="&#xfb04;" horiz-adv-x="1591" d="M1294 0v1516h152v-1516h-152zM585 981v121h162v90q0 350 387 350v-121q-39 -2 -55.5 -4t-58 -15t-63.5 -36t-41 -72t-19 -116v-76h237v-121h-237v-981h-150v981h-162zM12 981v121h162v90q0 350 387 350v-121q-39 -2 -55.5 -4t-58 -15t-63.5 -36t-41 -72t-19 -116v-76h237 v-121h-237v-981h-150v981h-162z" />
</font>
</defs>
</svg>
